<?xml version="1.0" standalone="no"?>
<!DOCTYPE svg PUBLIC "-//W3C//DTD SVG 1.1//EN" "http://www.w3.org/Graphics/SVG/1.1/DTD/svg11.dtd" >
<svg xmlns="http://www.w3.org/2000/svg">
    <metadata>
        <json>
            <![CDATA[
{
	"fontFamily": "WC-SA-Icons",
	"fontURL": "http://actualityextensions.com",
	"designer": "Dashicons, WC, FontAwesome, IcoMoon",
	"designerURL": "",
	"license": "",
	"licenseURL": "",
	"description": "Font generated by IcoMoon.",
	"majorVersion": 1,
	"minorVersion": 0,
	"version": "Version 1.0",
	"fontId": "WC-SA-Icons",
	"psName": "WC-SA-Icons",
	"subFamily": "Regular",
	"fullName": "WC-SA-Icons"
}
]]>
        </json>
    </metadata>
    <defs>
        <font id="WC-SA-Icons" horiz-adv-x="1024">
            <font-face units-per-em="1024" ascent="960" descent="-64"/>
            <missing-glyph horiz-adv-x="1024"/>
            <glyph unicode="&#x20;" horiz-adv-x="512" d=""/>
            <glyph unicode="&#xa100;" glyph-name="uniA100"
                   d="M741.376 393.728l-361.984 361.984 76.8 76.8q12.8 14.336 43.52 17.664t68.608-5.632 67.584-28.416q23.040-15.36 64.768-49.664t84.224-57.856q22.016-12.288 37.376-19.456t39.168-15.616 44.8-11.776 48.896-3.072 57.6 6.4zM705.024 357.376l-361.984 361.984-90.624-90.624q-14.848-14.848-14.848-36.096t14.848-36.096l54.272-54.272q14.848-14.848 14.848-36.352t-14.848-36.352q-13.824-13.824-31.488-27.648t-44.032-32.256-37.632-26.624q-33.792-25.088-51.712-43.008-26.624-26.624-47.104-55.552t-32.768-57.856-10.496-55.552 20.224-45.056 45.056-20.224 55.552 10.496 57.856 32.512 55.552 46.848q17.408 17.408 43.52 52.224 6.656 8.704 26.112 36.864t32.768 45.312 27.648 30.976q14.848 14.848 36.096 14.848t36.096-14.848l54.272-54.272q14.848-14.848 36.096-14.848t36.096 14.848z"/>
            <glyph unicode="&#xa101;" glyph-name="uniA101"
                   d="M256 857.6h460.8q41.984 0 72.192-30.208t30.208-72.192v-358.4q0-41.984-30.208-72.192t-72.192-30.208h-102.4l-256-256v256h-102.4q-41.984 0-72.192 30.208t-30.208 72.192v358.4q0 41.984 30.208 72.192t72.192 30.208z"/>
            <glyph unicode="&#xa102;" glyph-name="uniA102"
                   d="M819.2 524.8l78.336-78.336-54.272-54.272-331.264 331.264-331.264-331.264-54.272 54.272 385.536 385.536 204.8-204.8v102.4h102.4v-204.8zM512 650.752l307.2-306.688v-305.664h-614.4v305.664zM614.4 89.6v256h-204.8v-256h204.8z"/>
            <glyph unicode="&#xa103;" glyph-name="uniA103"
                   d="M908.288 818.688q64.512-65.024 64.512-156.16t-64.512-156.16l-78.336-77.824q-41.984-41.984-99.84-56.576t-112.128 0.768l134.144 133.632 38.912 39.424 38.912 38.912q32.256 32.256 32.256 77.824t-32.256 77.824q-32.256 32.768-77.824 32.768t-77.824-32.768l-39.424-38.912-173.056-173.056q-14.848 54.272-0.256 112.128t56.576 99.84l77.824 78.336q65.024 64.512 156.416 64.512t155.904-64.512zM439.808 272.384l273.408 273.408q15.872 15.872 15.872 38.912t-15.872 38.912q-17.408 16.384-39.936 15.872t-38.4-15.872l-272.896-273.408q-15.872-15.872-15.872-38.912t15.872-38.912q17.408-16.384 39.936-15.872t37.888 15.872zM400.896 155.136l211.968 212.48q15.36-54.272 0.768-112.128t-56.576-99.84l-77.824-78.336q-65.024-64.512-156.16-64.512t-156.16 64.512q-64.512 64.512-64.512 156.16t64.512 156.16l78.336 77.824q41.984 41.984 99.84 56.576t112.128-0.256l-211.968-212.48q-32.768-32.256-32.768-77.824t32.768-78.336q32.256-32.256 77.824-32.256t77.824 32.256z"/>
            <glyph unicode="&#xa104;" glyph-name="uniA104"
                   d="M665.6 396.8v358.4q0 20.992-15.104 36.096t-36.096 15.104h-85.504l-68.096 102.4h-204.8l-68.096-102.4h-85.504q-20.992 0-36.096-15.104t-15.104-36.096v-358.4q0-20.992 15.104-36.096t36.096-15.104h512q20.992 0 36.096 15.104t15.104 36.096zM358.4 729.6q53.248 0 90.624-37.376t37.376-90.624-37.376-90.624-90.624-37.376-90.624 37.376-37.376 90.624 37.376 90.624 90.624 37.376zM716.8 652.8h256v-537.6q0-53.248-37.376-90.624t-90.624-37.376-90.624 37.376-37.376 90.624 37.376 90.624 90.624 37.376q11.776 0 25.6-2.56v258.56h-153.6v153.6zM512 240.64v53.76h102.4v-179.2q0-53.248-37.376-90.624t-90.624-37.376-90.624 37.376-37.376 90.624 37.376 90.624 90.624 37.376q11.776 0 25.6-2.56z"/>
            <glyph unicode="&#xa105;" glyph-name="uniA105"
                   d="M307.2 192v665.6h512v-665.6h-512zM256 140.8h409.6v-102.4h-512v665.6h102.4v-563.2z"/>
            <glyph unicode="&#xa106;" glyph-name="uniA106"
                   d="M671.232 736.768l-165.888-165.888-95.744 95.744 165.888 165.888q13.312 13.312 36.864 8.448t43.008-24.832q19.968-19.456 24.576-42.752t-8.704-36.608zM261.632 646.144l46.592 57.344 461.312-461.312-60.928-43.008q-25.6-25.6-85.76-42.496t-109.824-16.896h-198.656l-63.488-63.488q-22.528-22.528-54.272-22.528t-54.272 22.528q-22.528 22.016-22.528 54.016t22.528 54.528l63.488 63.488v198.656q0 49.152 15.616 111.616t40.192 87.552zM633.344 442.88l165.888 165.888q12.8 13.312 36.352 8.704t43.008-24.576q19.968-19.456 24.576-42.752t-8.704-36.608l-165.888-166.4z"/>
            <glyph unicode="&#xa107;" glyph-name="uniA107"
                   d="M854.016 459.776q-50.688-50.688-120.832-64t-132.608 13.312l-276.992-333.824q-37.888-37.888-91.648-37.888t-91.648 37.888-37.888 91.648 37.888 91.136l333.824 277.504q-26.624 62.464-13.312 132.608t64 120.832q48.128 48.128 114.688 62.464t126.976-8.192l-147.968-147.968 144.384-144.384 146.432 146.944q20.992-59.904 6.656-125.184t-61.952-112.896zM195.072 130.048q15.36-14.848 36.864-14.848t36.352 14.848q15.36 15.36 15.36 36.864t-15.36 36.352q-14.848 15.36-36.352 15.36t-36.864-15.36q-14.848-14.848-14.848-36.352t14.848-36.864z"/>
            <glyph unicode="&#xa108;" glyph-name="uniA108"
                   d="M921.6 140.8v614.4q0 20.992-15.104 36.096t-36.096 15.104h-665.6q-20.992 0-36.096-15.104t-15.104-36.096v-614.4q0-20.992 15.104-36.096t36.096-15.104h665.6q20.992 0 36.096 15.104t15.104 36.096zM409.6 396.8h51.2q20.992 0 36.096-15.104t15.104-36.096-15.104-36.096-36.096-15.104h-51.2v-76.8q0-10.752-7.424-18.176t-18.176-7.424-18.176 7.424-7.424 18.176v76.8h-51.2q-20.992 0-36.096 15.104t-15.104 36.096 15.104 36.096 36.096 15.104h51.2v281.6q0 10.752 7.424 18.176t18.176 7.424 18.176-7.424 7.424-18.176v-281.6zM665.6 499.2h-51.2q-20.992 0-36.096 15.104t-15.104 36.096 15.104 36.096 36.096 15.104h51.2v76.8q0 10.752 7.424 18.176t18.176 7.424 18.176-7.424 7.424-18.176v-76.8h51.2q20.992 0 36.096-15.104t15.104-36.096-15.104-36.096-36.096-15.104h-51.2v-281.6q0-10.752-7.424-18.176t-18.176-7.424-18.176 7.424-7.424 18.176v281.6z"/>
            <glyph unicode="&#xa109;" glyph-name="uniA109"
                   d="M534.528 805.376l93.184 93.184 325.632-325.12-93.696-93.184q-39.936 26.624-89.6 21.76t-84.992-40.192l-38.4-38.4q-34.816-35.328-39.68-84.736t21.76-89.856l-93.696-93.184-123.392 123.392-143.36-142.848q-27.648-27.648-104.192-79.36t-90.368-37.888 37.888 90.88 78.848 104.192l142.848 142.848-123.392 123.904 93.696 93.184q39.936-26.624 89.6-21.76t84.48 40.192l38.4 38.4q35.328 34.816 40.192 84.48t-21.76 90.112z"/>
            <glyph unicode="&#xa110;" glyph-name="uniA110"
                   d="M512 486.4q-23.552 0-44.288 9.728t-34.56 25.344-25.088 34.304-17.664 37.376-10.752 34.304-5.888 25.344l-1.536 9.728q-3.072 28.16-1.536 55.552t12.544 52.736 27.136 44.544 42.24 30.72 57.856 11.52q52.736 0 87.552-30.208t46.592-73.728 4.608-91.136q-0.512-3.584-1.536-9.984t-5.376-24.576-10.496-34.816-17.152-37.12-24.576-35.072-34.048-24.576-44.032-9.984zM512 354.816l139.264 93.184q59.392 0 113.408-34.304t86.016-88.064 32-109.568v-127.488q-7.68-2.56-21.248-6.4t-55.808-13.824-84.224-17.664-99.84-13.824-109.568-6.144q-82.944 0-175.616 14.592t-143.872 28.928l-51.2 14.336v127.488q0 57.344 29.696 110.080t83.2 86.016 115.968 33.28z"/>
            <glyph unicode="&#xa111;" glyph-name="uniA111"
                   d="M921.6 345.6h-111.616q-13.312-54.784-41.472-98.816l78.848-78.848-107.52-107.52-78.848 78.848q-45.056-28.16-97.792-40.448v-111.616h-153.6v111.616q-52.736 12.288-97.792 40.448l-78.848-78.848-108.544 108.544 78.848 78.848q-28.16 45.056-40.448 97.792h-111.616v152.064h111.104q11.776 51.712 40.96 99.328l-78.848 78.848 107.52 107.52 78.848-78.848q43.52 27.648 98.816 41.472v111.616h153.6v-111.616q52.736-12.288 97.792-40.448l78.848 78.848 108.544-108.544-78.848-78.848q29.184-47.616 40.96-99.328h111.104v-152.064zM486.4 268.8q63.488 0 108.544 45.056t45.056 108.544-45.056 108.544-108.544 45.056-108.544-45.056-45.056-108.544 45.056-108.544 108.544-45.056z"/>
            <glyph unicode="&#xa112;" glyph-name="uniA112"
                   d="M867.84 827.904q49.152-49.152 66.816-115.2t0-131.84-66.816-114.944q-57.344-57.344-136.96-70.912t-149.248 19.2l-95.744-169.472-153.088-15.872-76.8-190.464h-153.6l-51.2 102.4 407.040 393.728q-36.352 71.168-23.808 152.832t71.424 140.544q49.152 49.152 115.2 66.816t131.84 0 114.944-66.816zM739.328 633.856q28.16 0 48.128 19.968t19.968 48.64q0 28.16-19.968 48.128t-48.128 19.968-48.128-19.968-19.968-48.128 19.968-48.384 48.128-20.224z"/>
            <glyph unicode="&#xa113;" glyph-name="uniA113"
                   d="M512 806.4q78.848 0 148.736-32.256t120.064-89.6l-87.552-99.84q-31.744 41.984-79.36 66.56t-101.888 24.576q-80.384 0-142.080-50.176t-79.104-126.464h118.784l-179.2-204.8-179.2 204.8h106.496q12.288 86.016 61.952 156.16t126.72 110.592 165.632 40.448zM512 87.552q-79.36 0-148.992 32.256t-119.808 89.6l87.552 99.84q31.744-41.984 79.36-66.56t101.888-24.576q80.384 0 142.080 50.176t79.104 126.464h-118.784l179.2 204.8 179.2-204.8h-106.496q-9.216-64.512-40.704-121.088t-78.080-97.536-107.776-64.768-127.744-23.808z"/>
            <glyph unicode="&#xa115;" glyph-name="uniA115"
                   d="M921.6 243.2v512q0 20.992-15.104 36.096t-36.096 15.104h-716.8q-20.992 0-36.096-15.104t-15.104-36.096v-512q0-20.992 15.104-36.096t36.096-15.104h716.8q20.992 0 36.096 15.104t15.104 36.096zM512 652.8q86.528 0 165.376-40.448t141.824-113.152q-62.976-72.704-141.824-113.152t-165.376-40.448-165.376 40.448-141.824 113.152q62.976 72.704 141.824 113.152t165.376 40.448zM614.4 499.2q0 41.984-30.208 72.192t-72.192 30.208-72.192-30.208-30.208-72.192 30.208-72.192 72.192-30.208 72.192 30.208 30.208 72.192zM716.8 89.6h153.6v-51.2h-716.8v51.2h153.6v51.2h409.6v-51.2z"/>
            <glyph unicode="&#xa116;" glyph-name="uniA116"
                   d="M972.8 140.8v665.6q0 20.992-15.104 36.096t-36.096 15.104h-768q-20.992 0-36.096-15.104t-15.104-36.096v-665.6q0-20.992 15.104-36.096t36.096-15.104h768q20.992 0 36.096 15.104t15.104 36.096zM204.8 755.2h665.6v-204.8h-665.6v204.8zM256 704v-102.4h153.6v102.4h-153.6zM460.8 704v-102.4h153.6v102.4h-153.6zM665.6 704v-102.4h153.6v102.4h-153.6zM230.4 448q10.752 0 18.176-7.424t7.424-18.176-7.424-18.176-18.176-7.424-18.176 7.424-7.424 18.176 7.424 18.176 18.176 7.424zM307.2 448h204.8v-51.2h-204.8v51.2zM614.4 448h256v-256h-256v256zM230.4 345.6q10.752 0 18.176-7.424t7.424-18.176-7.424-18.176-18.176-7.424-18.176 7.424-7.424 18.176 7.424 18.176 18.176 7.424zM307.2 345.6h204.8v-51.2h-204.8v51.2zM665.6 345.6v-102.4h153.6v102.4h-153.6zM230.4 243.2q10.752 0 18.176-7.424t7.424-18.176-7.424-18.176-18.176-7.424-18.176 7.424-7.424 18.176 7.424 18.176 18.176 7.424zM307.2 243.2h204.8v-51.2h-204.8v51.2z"/>
            <glyph unicode="&#xa117;" glyph-name="uniA117"
                   d="M256 857.6h512q41.984 0 72.192-30.208t30.208-72.192v-409.6q0-41.984-30.208-72.192t-72.192-30.208h-102.4l-256-256v256h-153.6q-41.984 0-72.192 30.208t-30.208 72.192v409.6q0 41.984 30.208 72.192t72.192 30.208zM691.2 422.4l-128 128 128 128-51.2 51.2-128-128-128 128-51.2-51.2 128-128-128-128 51.2-51.2 128 128 128-128z"/>
            <glyph unicode="&#xa118;" glyph-name="uniA118"
                   d="M512 448l-381.952 152.576 23.552-562.176h-102.4l24.576 584.192-75.776 30.208 512 204.8 512-204.8zM512 704q-20.992 0-36.096-7.424t-15.104-18.176 15.104-18.176 36.096-7.424 36.096 7.424 15.104 18.176-15.104 18.176-36.096 7.424zM512 396.8l285.184 114.176q57.344-76.288 69.632-168.96-26.624 3.584-47.616 3.584-96.256 0-177.92-47.36t-129.28-127.232q-47.616 79.872-129.28 127.232t-177.92 47.36q-20.48 0-47.616-3.584 12.288 92.672 69.632 168.96z"/>
            <glyph unicode="&#xa119;" glyph-name="uniA119"
                   d="M864.768 898.56l72.192-72.192q14.848-14.848 14.848-36.096t-14.848-36.096l-220.16-220.672v-495.104h-563.2v768h546.304l92.16 92.16q15.36 14.848 36.608 15.104t36.096-15.104zM574.976 464.384l274.944 274.432-72.704 72.704-274.432-274.944-36.352-108.544z"/>
            <glyph unicode="&#xa120;" glyph-name="uniA120"
                   d="M1024 448q0 83.456-25.856 161.536t-73.216 141.056-110.336 110.336-141.056 73.216-161.536 25.856-161.536-25.856-141.056-73.216-110.336-110.336-73.216-141.056-25.856-161.536 25.856-161.536 73.216-141.056 110.336-110.336 141.056-73.216 161.536-25.856 161.536 25.856 141.056 73.216 110.336 110.336 73.216 141.056 25.856 161.536zM512 908.288q93.696 0 178.944-36.352t146.944-98.048 98.048-146.944 36.352-178.944-36.352-178.944-98.048-146.944-146.944-98.048-178.944-36.352-178.944 36.352-146.944 98.048-98.048 146.944-36.352 178.944 36.352 178.944 98.048 146.944 146.944 98.048 178.944 36.352zM410.112 201.216l-156.16 420.352 53.76 4.096q10.24 1.024 13.824 14.080t-1.28 25.088-15.616 11.52q-66.048-5.12-109.056-5.12-16.896 0-26.624 0.512 56.32 84.992 146.944 134.656t196.096 49.664q78.848 0 150.272-28.16t126.72-78.848q-26.624 3.584-50.432-15.616t-23.808-57.088q0-14.848 5.888-31.488t11.52-26.88 18.944-31.232q2.56-4.096 4.096-6.656 25.6-44.544 25.6-113.152 0-30.72-16.128-88.064t-32.512-99.328l-16.384-41.984-138.752 384q10.752 0.512 20.48 2.56t13.824 4.096l4.096 1.536q10.24 1.024 14.080 15.104t-1.28 27.392-15.36 12.8q-66.56-5.632-109.568-5.632-17.92 0-44.8 1.536l-44.8 2.56-18.432 1.536q-10.24 0.512-15.36-13.056t-1.28-27.648 14.080-14.592l43.008-4.096 57.344-155.648zM718.336 91.136l133.632 356.864q1.536 3.584 3.584 9.984t7.68 27.392 7.936 41.984 4.096 53.76-3.328 61.952q48.128-87.040 48.128-195.072 0-112.128-54.528-207.36t-147.2-149.504zM137.216 613.376l195.584-536.576q-103.424 50.688-166.144 150.784t-62.72 220.416q0 91.648 33.28 165.376zM518.656 381.44l117.248-320q-59.904-21.504-123.904-21.504-52.736 0-105.472 15.36z"/>
            <glyph unicode="&#xa121;" glyph-name="uniA121"
                   d="M153.6 908.8h716.8v-921.6h-716.8v921.6zM716.8 704v51.2h-409.6v-51.2h409.6zM716.8 550.4v51.2h-409.6v-51.2h409.6zM716.8 396.8v51.2h-409.6v-51.2h409.6zM614.4 243.2v51.2h-307.2v-51.2h307.2z"/>
            <glyph unicode="&#xa122;" glyph-name="uniA122"
                   d="M437.248 307.712q0 66.56-36.864 113.664-25.6 32.256-69.888 41.984t-81.664 1.536q-12.8 73.216 39.936 155.392t135.168 123.648l-83.456 116.736q-50.176-24.064-96.512-58.368t-86.784-80.384-68.352-98.56-40.704-116.224-4.608-129.28q13.312-108.032 71.424-172.544t145.152-64.512q77.312 0 126.976 45.056 50.176 45.056 50.176 121.856zM920.064 307.712q0 66.56-36.864 113.664-25.6 32.256-69.888 41.984t-81.664 1.536q-12.8 73.216 39.936 155.392t135.168 123.648l-83.456 116.736q-50.176-24.064-96.512-58.368t-86.784-80.384-68.352-98.56-40.704-116.224-4.608-129.28q13.312-108.032 71.424-172.544t145.152-64.512q77.312 0 126.976 45.056 50.176 45.056 50.176 121.856z"/>
            <glyph unicode="&#xa123;" glyph-name="uniA123"
                   d="M51.2 908.8h921.6v-614.4l-307.2-307.2h-614.4v921.6zM204.8 755.2v-51.2h614.4v51.2h-614.4zM204.8 550.4v-51.2h614.4v51.2h-614.4zM512 294.4v51.2h-307.2v-51.2h307.2zM614.4 89.6l256 256h-256v-256z"/>
            <glyph unicode="&#xa125;" glyph-name="uniA125"
                   d="M563.2 652.8h-41.984q-41.472 0-76.544-36.352t-35.072-74.24v-94.208l-153.6-153.6v153.6h-102.4q-41.984 0-72.192 30.208t-30.208 72.192v256q0 41.984 30.208 72.192t72.192 30.208h307.2q41.984 0 72.192-30.208t30.208-72.192v-153.6zM563.2 601.6h307.2q41.984 0 72.192-30.208t30.208-72.192v-256q0-41.984-30.208-72.192t-72.192-30.208h-102.4v-153.6l-153.6 153.6h-51.2q-41.984 0-72.192 30.208t-30.208 72.192v256q0 41.984 30.208 72.192t72.192 30.208z"/>
            <glyph unicode="&#xa126;" glyph-name="uniA126"
                   d="M102.4 908.8h819.2q20.992 0 36.096-15.104t15.104-36.096v-819.2l-921.6 1.024v818.176q0 20.992 15.104 36.096t36.096 15.104zM307.2 857.6l-102.4-153.6h51.2l102.4 153.6h-51.2zM512 857.6h-51.2l-102.4-153.6h51.2zM665.6 857.6h-51.2l-102.4-153.6h51.2zM819.2 857.6h-51.2l-102.4-153.6h51.2zM870.4 140.8v512h-716.8v-512h716.8zM409.6 601.6l307.2-204.8-307.2-204.8v409.6z"/>
            <glyph unicode="&#xa127;" glyph-name="uniA127"
                   d="M357.888 802.304l564.224 102.4q20.48 3.072 35.584-13.056t15.104-38.144v-635.904q0-74.24-52.48-126.72t-126.72-52.48-126.72 52.48-52.48 126.72 52.48 126.72 126.72 52.48q37.376 0 76.8-17.92v321.024l-460.8-102.4v-456.704q-9.216-65.536-60.416-109.568t-118.784-44.032q-74.24 0-126.72 52.48t-52.48 126.72 52.48 126.72 126.72 52.48q37.376 0 76.8-17.92v423.424q0 20.48 14.336 34.048t36.352 17.152z"/>
            <glyph unicode="&#xa128;" glyph-name="uniA128"
                   d="M115.2 908.8h793.6q26.624 0 45.312-18.688t18.688-45.312v-793.6q0-26.624-18.688-45.312t-45.312-18.688h-793.6q-26.624 0-45.312 18.688t-18.688 45.312v793.6q0 26.624 18.688 45.312t45.312 18.688zM870.4 89.6v716.8h-716.8v-716.8h716.8zM512 652.8q0 41.984-30.208 72.192t-72.192 30.208-72.192-30.208-30.208-72.192 30.208-72.192 72.192-30.208 72.192 30.208 30.208 72.192zM665.6 396.8q0 4.096 0.256 10.752t1.536 27.648 3.84 41.472 7.936 48.128 12.8 51.456 19.2 47.872 26.624 41.216 35.84 27.904 45.568 10.752v-512q0-20.992-15.104-36.096t-36.096-15.104h-512q-20.992 0-36.096 15.104t-15.104 36.096v358.4q20.992 0 40.704-11.264t34.56-29.44 28.16-39.936 22.272-43.52 15.36-39.936 9.472-29.44l3.072-11.264q2.048 6.144 6.144 16.64t18.432 36.864 30.72 46.592 43.008 36.864 55.296 16.64 55.040-10.496 43.52-25.6 30.208-30.208 18.688-25.856z"/>
            <glyph unicode="&#xa129;" glyph-name="uniA129"
                   d="M768 755.2h150.528q22.528 0 38.4-15.872t15.872-38.4v-604.672q0-23.040-15.872-40.448t-38.4-17.408h-813.056q-22.528 0-38.4 17.408t-15.872 40.448v604.672q0 22.528 15.872 38.4t38.4 15.872h150.528l153.6 102.4h204.8zM512 192q84.992 0 144.896 59.904t59.904 144.896-59.904 144.896-144.896 59.904-144.896-59.904-59.904-144.896 59.904-144.896 144.896-59.904z"/>
            <glyph unicode="&#xa130;" glyph-name="uniA130"
                   d="M512 908.8q104.96 0 185.344-17.152t131.84-46.592 84.224-72.704 46.080-90.88 13.312-105.472-13.312-105.472-46.080-90.88-84.224-72.704-131.84-46.592-185.344-17.152-185.344 17.152-131.84 46.592-84.224 72.704-46.080 90.88-13.312 105.472 13.312 105.472 46.080 90.88 84.224 72.704 131.84 46.592 185.344 17.152zM281.6 499.2q31.744 0 54.272 22.528t22.528 54.272-22.528 54.272-54.272 22.528-54.272-22.528-22.528-54.272 22.528-54.272 54.272-22.528zM512 499.2q31.744 0 54.272 22.528t22.528 54.272-22.528 54.272-54.272 22.528-54.272-22.528-22.528-54.272 22.528-54.272 54.272-22.528zM742.4 499.2q31.744 0 54.272 22.528t22.528 54.272-22.528 54.272-54.272 22.528-54.272-22.528-22.528-54.272 22.528-54.272 54.272-22.528zM307.2 217.6q31.744 0 54.272-22.528t22.528-54.272-22.528-54.272-54.272-22.528-54.272 22.528-22.528 54.272 22.528 54.272 54.272 22.528zM153.6 115.2q20.992 0 36.096-15.104t15.104-36.096-15.104-36.096-36.096-15.104-36.096 15.104-15.104 36.096 15.104 36.096 36.096 15.104z"/>
            <glyph unicode="&#xa132;" glyph-name="uniA132"
                   d="M870.4 601.6v-153.6h-256v-256h-153.6v256h-256v153.6h256v256h153.6v-256h256z"/>
            <glyph unicode="&#xa133;" glyph-name="uniA133"
                   d="M870.4 601.6v153.6h-102.4v102.4h-153.6v-51.2h-460.8v-768h563.2v460.8h51.2v102.4h102.4zM819.2 704v-51.2h-102.4v-102.4h-51.2v102.4h-102.4v51.2h102.4v102.4h51.2v-102.4h102.4z"/>
            <glyph unicode="&#xa134;" glyph-name="uniA134"
                   d="M153.6 704h716.8v102.4h-716.8v-102.4zM768 294.4v307.2h-512v-307.2h512zM153.6 89.6h716.8v102.4h-716.8v-102.4z"/>
            <glyph unicode="&#xa135;" glyph-name="uniA135"
                   d="M153.6 704h716.8v102.4h-716.8v-102.4zM614.4 294.4v307.2h-460.8v-307.2h460.8zM716.8 499.2h153.6v102.4h-153.6v-102.4zM716.8 294.4h153.6v102.4h-153.6v-102.4zM153.6 89.6h716.8v102.4h-716.8v-102.4z"/>
            <glyph unicode="&#xa136;" glyph-name="uniA136"
                   d="M153.6 704h716.8v102.4h-716.8v-102.4zM153.6 499.2h153.6v102.4h-153.6v-102.4zM870.4 294.4v307.2h-460.8v-307.2h460.8zM153.6 294.4h153.6v102.4h-153.6v-102.4zM153.6 89.6h716.8v102.4h-716.8v-102.4z"/>
            <glyph unicode="&#xa138;" glyph-name="uniA138"
                   d="M153.6 704h716.8v102.4h-716.8v-102.4zM665.6 294.4v307.2h-512v-307.2h512zM153.6 89.6h716.8v102.4h-716.8v-102.4z"/>
            <glyph unicode="&#xa139;" glyph-name="uniA139" d="M409.6 652.8l307.2-206.336-307.2-203.264v409.6z"/>
            <glyph unicode="&#xa140;" glyph-name="uniA140" d="M768 550.4l-206.336-307.2-203.264 307.2h409.6z"/>
            <glyph unicode="&#xa141;" glyph-name="uniA141" d="M665.6 243.2l-307.2 206.336 307.2 203.264v-409.6z"/>
            <glyph unicode="&#xa142;" glyph-name="uniA142" d="M358.4 294.4l206.336 307.2 203.264-307.2h-409.6z"/>
            <glyph unicode="&#xa143;" glyph-name="uniA143" d="M358.4 294.4l206.336 307.2 203.264-307.2h-409.6z"/>
            <glyph unicode="&#xa145;" glyph-name="uniA145"
                   d="M768 755.2h153.6v-716.8h-819.2v716.8h153.6v51.2q0 31.744 22.528 54.272t54.272 22.528 54.272-22.528 22.528-54.272v-51.2h204.8v51.2q0 31.744 22.528 54.272t54.272 22.528 54.272-22.528 22.528-54.272v-51.2zM307.2 806.4v-128q0-10.752 7.424-18.176t18.176-7.424 18.176 7.424 7.424 18.176v128q0 10.752-7.424 18.176t-18.176 7.424-18.176-7.424-7.424-18.176zM665.6 806.4v-128q0-10.752 7.424-18.176t18.176-7.424 18.176 7.424 7.424 18.176v128q0 10.752-7.424 18.176t-18.176 7.424-18.176-7.424-7.424-18.176zM870.4 89.6v460.8h-716.8v-460.8h716.8zM358.4 140.8v358.4h-102.4v-358.4h102.4zM563.2 140.8v358.4h-102.4v-358.4h102.4zM768 140.8v358.4h-102.4v-358.4h102.4z"/>
            <glyph unicode="&#xa147;" glyph-name="uniA147"
                   d="M759.296 709.632l68.608-48.128-297.472-429.056h-68.608l-165.888 232.448 68.608 64 131.584-122.88z"/>
            <glyph unicode="&#xa148;" glyph-name="uniA148"
                   d="M512 849.408q81.92 0 156.16-31.744t128-85.504 85.504-128 31.744-156.16-31.744-156.16-85.504-128-128-85.504-156.16-31.744-156.16 31.744-128 85.504-85.504 128-31.744 156.16q0 109.056 54.272 201.472t146.688 146.176 200.448 53.76zM614.4 249.344v397.312l-297.984-197.12z"/>
            <glyph unicode="&#xa153;" glyph-name="uniA153"
                   d="M512 857.6q83.456 0 159.232-32.512t130.56-87.296 87.296-130.56 32.512-159.232-32.512-159.232-87.296-130.56-130.56-87.296-159.232-32.512-159.232 32.512-130.56 87.296-87.296 130.56-32.512 159.232 32.512 159.232 87.296 130.56 130.56 87.296 159.232 32.512zM768 294.4l-153.6 153.6 153.6 153.6-102.4 102.4-153.6-153.6-153.6 153.6-102.4-102.4 153.6-153.6-153.6-153.6 102.4-102.4 153.6 153.6 153.6-153.6z"/>
            <glyph unicode="&#xa154;" glyph-name="uniA154"
                   d="M512 908.8l-153.6-307.2-307.2-38.4 211.456-236.544-57.856-339.456 307.2 153.6 307.2-153.6-57.344 339.456 210.944 236.544-307.2 38.4zM512 794.112l119.808-240.128 238.080-29.696-162.816-182.272 44.544-263.68-239.616 119.808-239.616-119.808 44.544 263.68-162.816 182.272 238.080 29.696z"/>
            <glyph unicode="&#xa155;" glyph-name="uniA155"
                   d="M512 908.8l153.6-307.2 307.2-38.4-210.944-236.544 57.344-339.456-307.2 153.6-307.2-153.6 57.856 339.456-211.456 236.544 307.2 38.4z"/>
            <glyph unicode="&#xa156;" glyph-name="uniA156"
                   d="M563.2 601.6h-512l256-358.4zM460.8 243.2h512l-256 358.4z"/>
            <glyph unicode="&#xa157;" glyph-name="uniA157"
                   d="M755.712 908.8q68.608 0 117.248-48.896t48.64-117.504-48.64-117.248-117.248-48.64q-16.896 0-35.84 4.096l-54.272-54.272v-539.136h-563.2v768h488.448q4.608 74.24 50.688 113.92t114.176 39.68zM755.712 627.712q47.616 0 81.152 33.792t33.536 80.896q0 47.616-33.536 81.408t-81.152 33.792-81.152-33.792-33.536-81.408q0-27.648 13.824-52.736l-164.864-164.864q-17.92-17.92-51.968-68.096t-24.832-59.392q1.536-2.048 5.12-2.048 16.384 0 61.696 31.488t60.672 46.848l165.888 165.888q24.576-11.776 49.152-11.776z"/>
            <glyph unicode="&#xa158;" glyph-name="uniA158"
                   d="M620.544 448l180.736-180.736-108.544-108.544-180.736 180.736-181.248-181.248-108.544 108.544 181.248 181.248-181.248 181.248 108.544 108.544 181.248-181.248 181.248 180.736 108.544-108.544z"/>
            <glyph unicode="&#xa159;" glyph-name="uniA159"
                   d="M512 857.6q83.456 0 159.232-32.512t130.56-87.296 87.296-130.56 32.512-159.232-32.512-159.232-87.296-130.56-130.56-87.296-159.232-32.512-159.232 32.512-130.56 87.296-87.296 130.56-32.512 159.232 32.512 159.232 87.296 130.56 130.56 87.296 159.232 32.512zM512 192q69.632 0 128.512 34.304t93.184 93.184 34.304 128.512-34.304 128.512-93.184 93.184-128.512 34.304-128.512-34.304-93.184-93.184-34.304-128.512 34.304-128.512 93.184-93.184 128.512-34.304z"/>
            <glyph unicode="&#xa160;" glyph-name="uniA160"
                   d="M716.8 499.2h51.2q20.992 0 36.096-15.104t15.104-36.096v-358.4q0-20.992-15.104-36.096t-36.096-15.104h-512q-20.992 0-36.096 15.104t-15.104 36.096v358.4q0 20.992 15.104 36.096t36.096 15.104h51.2v153.6q0 84.992 59.904 144.896t144.896 59.904 144.896-59.904 59.904-144.896v-153.6zM614.4 499.2v153.6q0 41.984-30.208 72.192t-72.192 30.208-72.192-30.208-30.208-72.192v-153.6h204.8zM563.2 140.8l-18.432 110.080q19.968 9.216 32 27.904t12.032 41.216q0 31.744-22.528 54.272t-54.272 22.528-54.272-22.528-22.528-54.272q0-22.528 12.032-41.216t32-27.904l-18.432-110.080h102.4z"/>
            <glyph unicode="&#xa161;" glyph-name="uniA161"
                   d="M819.2 755.2h100.352q22.016 0 37.632-15.616t15.616-37.632v-661.504q0-22.016-15.616-37.632t-37.632-15.616h-661.504q-22.016 0-37.632 15.616t-15.616 37.632v100.352h-100.352q-22.016 0-37.632 15.616t-15.616 37.632v661.504q0 22.016 15.616 37.632t37.632 15.616h661.504q22.016 0 37.632-15.616t15.616-37.632v-100.352zM153.6 243.2h563.2v563.2h-563.2v-563.2zM409.6 678.4q0 31.744-22.528 54.272t-54.272 22.528-54.272-22.528-22.528-54.272 22.528-54.272 54.272-22.528 54.272 22.528 22.528 54.272zM512 448q1.024 5.12 3.072 14.336t9.472 35.84 15.616 50.944 22.016 53.76 28.416 50.688 34.304 35.84 40.704 14.592v-409.6h-460.8v307.2q28.672 0 49.664-15.872t30.72-38.4 15.36-45.056 6.144-38.4l0.512-15.872q0.512 2.048 1.28 5.888t4.096 14.336 7.936 20.224 13.056 21.504 18.432 20.224 25.088 14.336 32.512 5.888q24.064 0 43.264-10.496t29.696-25.6 17.664-30.208 9.728-25.856zM870.4 89.6v563.2h-51.2v-458.752q0-22.016-15.616-37.632t-37.632-15.616h-458.752v-51.2h563.2z"/>
            <glyph unicode="&#xa163;" glyph-name="uniA163"
                   d="M102.4-12.8h819.2q20.992 0 36.096 15.104t15.104 36.096v819.2q0 20.992-15.104 36.096t-36.096 15.104h-819.2q-20.992 0-36.096-15.104t-15.104-36.096v-819.2q0-20.992 15.104-36.096t36.096-15.104zM204.8 806.4q20.992 0 36.096-15.104t15.104-36.096-15.104-36.096-36.096-15.104-36.096 15.104-15.104 36.096 15.104 36.096 36.096 15.104zM870.4 806.4v-102.4h-563.2v102.4h563.2zM204.8 601.6q20.992 0 36.096-15.104t15.104-36.096-15.104-36.096-36.096-15.104-36.096 15.104-15.104 36.096 15.104 36.096 36.096 15.104zM870.4 601.6v-102.4h-563.2v102.4h563.2zM204.8 396.8q20.992 0 36.096-15.104t15.104-36.096-15.104-36.096-36.096-15.104-36.096 15.104-15.104 36.096 15.104 36.096 36.096 15.104zM870.4 396.8v-102.4h-563.2v102.4h563.2zM204.8 192q20.992 0 36.096-15.104t15.104-36.096-15.104-36.096-36.096-15.104-36.096 15.104-15.104 36.096 15.104 36.096 36.096 15.104zM870.4 192v-102.4h-563.2v102.4h563.2z"/>
            <glyph unicode="&#xa164;" glyph-name="uniA164"
                   d="M972.8 38.4v819.2q0 20.992-15.104 36.096t-36.096 15.104h-819.2q-20.992 0-36.096-15.104t-15.104-36.096v-819.2q0-20.992 15.104-36.096t36.096-15.104h819.2q20.992 0 36.096 15.104t15.104 36.096zM204.8 806.4q20.992 0 36.096-15.104t15.104-36.096-15.104-36.096-36.096-15.104-36.096 15.104-15.104 36.096 15.104 36.096 36.096 15.104zM870.4 806.4v-307.2h-563.2v307.2h563.2zM204.8 396.8q20.992 0 36.096-15.104t15.104-36.096-15.104-36.096-36.096-15.104-36.096 15.104-15.104 36.096 15.104 36.096 36.096 15.104zM870.4 396.8v-307.2h-563.2v307.2h563.2z"/>
            <glyph unicode="&#xa165;" glyph-name="uniA165"
                   d="M972.8 345.6v-153.6h-204.8v-204.8h-153.6v204.8h-409.6v409.6h-204.8v153.6h204.8v204.8h153.6v-204.8h358.4l153.6 153.6 51.2-51.2-153.6-153.6v-358.4h204.8zM563.2 601.6h-204.8v-204.8zM409.6 345.6h204.8v204.8z"/>
            <glyph unicode="&#xa166;" glyph-name="uniA166"
                   d="M358.4 704h-99.84q0 70.144 36.608 109.312t114.432 39.168v107.52q-118.784 0-188.416-71.424t-69.632-184.576h-91.136l134.144-173.568zM1024 908.8v-716.8h-256v-256h-716.8v512h460.8v460.8h512zM921.6 806.4h-307.2v-358.4h153.6v-153.6h153.6v512zM665.6 345.6h-512v-307.2h512v307.2z"/>
            <glyph unicode="&#xa167;" glyph-name="uniA167"
                   d="M816.64 704h-99.84l163.84-173.568 134.144 173.568h-91.136q0 113.152-69.632 184.576t-188.416 71.424v-107.52q77.824 0 114.432-39.168t36.608-109.312zM51.2 908.8h512v-460.8h460.8v-512h-716.8v256h-256v716.8zM153.6 806.4v-512h153.6v153.6h153.6v358.4h-307.2zM409.6 345.6v-307.2h512v307.2h-512z"/>
            <glyph unicode="&#xa168;" glyph-name="uniA168"
                   d="M1024 499.2v-102.4h-153.6v-409.6h-716.8v409.6h-153.6v102.4h153.6v409.6h716.8v-409.6h153.6zM332.8 601.6h358.4l-179.2 204.8zM870.4 473.6h-716.8v-51.2h716.8v51.2zM691.2 294.4h-358.4l179.2-204.8z"/>
            <glyph unicode="&#xa169;" glyph-name="uniA169"
                   d="M972.8 806.4v-716.8h-409.6v-153.6h-102.4v153.6h-409.6v716.8h409.6v153.6h102.4v-153.6h409.6zM537.6 89.6v716.8h-51.2v-716.8h51.2zM358.4 627.2l-204.8-179.2 204.8-179.2v358.4zM870.4 448l-204.8 179.2v-358.4z"/>
            <glyph unicode="&#xa171;" glyph-name="uniA171"
                   d="M882.176 442.88q40.448-95.232 40.448-199.68t-40.448-199.68l-142.336 59.904q28.16 67.584 28.16 139.776 0 72.704-28.16 139.264-26.624 64-76.8 114.176-49.664 49.664-113.664 76.8-67.584 28.16-139.776 28.16v-153.6l-307.2 230.4 307.2 230.4v-152.576q104.448 0 199.68-40.448 93.184-39.424 162.816-110.080 70.656-69.632 110.080-162.816z"/>
            <glyph unicode="&#xa172;" glyph-name="uniA172"
                   d="M141.824 442.88q39.424 93.184 110.080 162.816 69.632 70.656 162.816 110.080 95.232 40.448 199.68 40.448v152.576l307.2-230.4-307.2-230.4v153.6q-72.192 0-139.776-28.16-63.488-27.136-113.664-76.8-50.176-50.176-76.8-114.176-28.16-66.56-28.16-139.264 0-72.192 28.16-139.776l-142.336-59.904q-40.448 95.232-40.448 199.68t40.448 199.68z"/>
            <glyph unicode="&#xa173;" glyph-name="uniA173"
                   d="M716.8 652.8q0-70.656-43.264-125.44t-110.336-72.192v-314.368q0-22.528-25.6-48.128t-51.2-39.936l-25.6-14.336v416.768q-67.072 17.408-110.336 72.192t-43.264 125.44q0 84.992 59.904 144.896t144.896 59.904 144.896-59.904 59.904-144.896zM409.6 704q0-20.992 15.104-36.096t36.096-15.104 36.096 15.104 15.104 36.096-15.104 36.096-36.096 15.104-36.096-15.104-15.104-36.096z"/>
            <glyph unicode="&#xa174;" glyph-name="uniA174"
                   d="M307.2 294.4h460.8q20.992 0 36.096-15.104t15.104-36.096-15.104-36.096-36.096-15.104h-512q-20.992 0-36.096 15.104t-15.104 36.096v512h-102.4q-20.992 0-36.096 15.104t-15.104 36.096 15.104 36.096 36.096 15.104h153.6q20.992 0 36.096-15.104t15.104-36.096v-102.4h665.6l-204.8-358.4h-460.8v-51.2zM281.6 140.8q31.744 0 54.272-22.528t22.528-54.272-22.528-54.272-54.272-22.528-54.272 22.528-22.528 54.272 22.528 54.272 54.272 22.528zM742.4 140.8q31.744 0 54.272-22.528t22.528-54.272-22.528-54.272-54.272-22.528-54.272 22.528-22.528 54.272 22.528 54.272 54.272 22.528z"/>
            <glyph unicode="&#xa175;" glyph-name="uniA175"
                   d="M102.4 857.6h819.2q20.992 0 36.096-15.104t15.104-36.096v-716.8q0-20.992-15.104-36.096t-36.096-15.104h-819.2q-20.992 0-36.096 15.104t-15.104 36.096v716.8q0 20.992 15.104 36.096t36.096 15.104zM870.4 140.8v460.8h-716.8v-460.8h716.8zM204.8 550.4v-51.2h153.6v51.2h-153.6zM409.6 550.4v-153.6h409.6v153.6h-409.6zM204.8 345.6v-51.2h153.6v51.2h-153.6zM409.6 345.6v-153.6h409.6v153.6h-409.6z"/>
            <glyph unicode="&#xa176;" glyph-name="uniA176"
                   d="M760.32 446.464q68.096-7.168 114.688-57.856t46.592-119.808q0-74.24-52.48-126.72t-126.72-52.48h-512q-74.24 0-126.72 52.48t-52.48 126.72q0 68.096 45.056 118.272t111.616 58.88q-3.072 13.312-3.072 27.648 0 53.248 37.376 90.624t90.624 37.376q25.088 0 48.64-9.728 25.6 50.688 74.496 81.408t107.264 30.72q84.992 0 144.896-59.904t59.904-144.896q0-24.576-7.68-52.736z"/>
            <glyph unicode="&#xa177;" glyph-name="uniA177"
                   d="M512 699.392q150.528 0 274.432-77.312t186.368-204.288q-62.464-126.976-186.368-204.288t-274.432-77.312-274.432 77.312-186.368 204.288q62.464 126.976 186.368 204.288t274.432 77.312zM632.32 540.672q0 22.528-13.312 39.936t-33.792 23.552q-8.704 1.024-25.088 2.048-25.088-2.048-42.496-20.736t-17.408-44.8q0-27.136 19.456-46.592t46.592-19.456q27.648 0 46.848 19.456t19.2 46.592zM512 197.632q124.928 0 230.144 61.952t158.976 158.208q-35.328 62.976-96.768 106.752t-141.312 64.768q55.808-59.904 55.808-141.312 0-85.504-60.672-146.176t-146.176-60.672-146.176 60.672-60.672 146.176q0 81.408 55.808 141.312-79.872-20.992-141.312-64.768t-96.768-106.752q53.76-96.256 158.976-158.208t230.144-61.952z"/>
            <glyph unicode="&#xa178;" glyph-name="uniA178"
                   d="M921.6 89.6v716.8q0 20.992-15.104 36.096t-36.096 15.104h-716.8q-20.992 0-36.096-15.104t-15.104-36.096v-716.8q0-20.992 15.104-36.096t36.096-15.104h716.8q20.992 0 36.096 15.104t15.104 36.096zM870.4 89.6h-716.8v716.8h716.8v-716.8zM243.2 755.2h537.6q15.872 0 27.136-11.264t11.264-27.136v-64h-51.2v-153.6h51.2v-102.4h-51.2v-153.6h51.2v-64q0-15.872-11.264-27.136t-27.136-11.264h-537.6q-15.872 0-27.136 11.264t-11.264 27.136v537.6q0 15.872 11.264 27.136t27.136 11.264zM665.6 448q0 84.992-59.904 144.896t-144.896 59.904-144.896-59.904-59.904-144.896 59.904-144.896 144.896-59.904 144.896 59.904 59.904 144.896zM460.8 601.6l39.424-58.88q28.16-12.288 45.568-37.888t17.408-56.832q0-41.984-30.208-72.192t-72.192-30.208-72.192 30.208-30.208 72.192q0 31.232 17.408 56.832t45.568 37.888z"/>
            <glyph unicode="&#xa179;" glyph-name="uniA179"
                   d="M621.568 745.984q71.168-71.168 80.896-171.264t-44.032-181.504q1.536-1.536 7.936-7.168t10.496-8.704q17.408-13.824 41.472-30.208 31.744-22.016 33.792-24.064 31.232-23.040 48.128-39.936 25.088-25.088 43.008-51.2 18.432-25.6 30.208-53.248 11.264-28.16 9.216-51.2-1.536-24.576-18.432-41.472t-41.472-18.432q-25.088-1.536-50.688 9.728-26.624 10.752-53.248 30.208-26.112 17.92-51.2 43.008-16.896 16.896-39.424 47.616-1.024 1.536-24.064 33.792-16.384 23.552-28.672 39.936-12.288 15.36-22.528 25.6-78.848-42.496-171.008-29.184t-158.72 79.36q-81.92 82.432-81.92 199.424t81.92 198.912q54.272 54.272 126.72 73.472t144.896 0 126.72-73.472zM549.376 420.352q52.224 52.736 52.224 126.72t-52.224 126.72q-52.736 52.736-126.976 52.736t-126.464-52.736q-52.736-52.736-52.736-126.72t52.736-126.72q52.224-52.736 126.464-52.736t126.976 52.736z"/>
            <glyph unicode="&#xa180;" glyph-name="uniA180"
                   d="M460.8 499.2v307.2h-307.2v-307.2h307.2zM870.4 499.2v307.2h-307.2v-307.2h307.2zM460.8 89.6v307.2h-307.2v-307.2h307.2zM870.4 89.6v307.2h-307.2v-307.2h307.2z"/>
            <glyph unicode="&#xa181;" glyph-name="uniA181"
                   d="M256 243.2v409.6h512v-409.6h-512zM102.4 294.4v307.2h102.4v-307.2h-102.4zM307.2 601.6v-307.2h409.6v307.2h-409.6zM819.2 601.6h102.4v-307.2h-102.4v307.2zM665.6 499.2v51.2h-307.2v-51.2h307.2zM665.6 345.6v102.4h-307.2v-102.4h307.2z"/>
            <glyph unicode="&#xa182;" glyph-name="uniA182"
                   d="M614.4 755.2h153.6q20.992 0 36.096-15.104t15.104-36.096v-51.2h-665.6v51.2q0 20.992 15.104 36.096t36.096 15.104h153.6q8.704 44.032 45.312 73.216t82.688 29.184 82.688-29.184 45.312-73.216zM409.6 755.2h153.6q-8.192 22.016-29.952 36.608t-46.848 14.592-46.848-14.592-29.952-36.608zM204.8 601.6h563.2v-512q0-20.992-15.104-36.096t-36.096-15.104h-460.8q-20.992 0-36.096 15.104t-15.104 36.096v512zM358.4 140.8v358.4h-51.2v-358.4h51.2zM512 140.8v358.4h-51.2v-358.4h51.2zM665.6 140.8v358.4h-51.2v-358.4h51.2z"/>
            <glyph unicode="&#xa183;" glyph-name="uniA183"
                   d="M921.6 38.4v819.2h-819.2v-819.2h819.2zM819.2 704h-614.4v51.2h614.4v-51.2zM358.4 601.6v-153.6h153.6q0-63.488-45.056-108.544t-108.544-45.056-108.544 45.056-45.056 108.544 45.056 108.544 108.544 45.056zM409.6 499.2v102.4q41.984 0 72.192-30.208t30.208-72.192h-102.4zM819.2 550.4h-204.8v51.2h204.8v-51.2zM819.2 396.8h-204.8v102.4h204.8v-102.4zM819.2 294.4h-204.8v51.2h204.8v-51.2zM819.2 140.8h-614.4v51.2h614.4v-51.2z"/>
            <glyph unicode="&#xa184;" glyph-name="uniA184"
                   d="M512 448v358.4q73.216 0 139.52-28.416t114.176-76.288 76.288-114.176 28.416-139.52h-358.4zM460.8 755.2v-358.4h358.4q0-73.216-28.416-139.52t-76.288-114.176-114.176-76.288-139.52-28.416-139.52 28.416-114.176 76.288-76.288 114.176-28.416 139.52 28.416 139.52 76.288 114.176 114.176 76.288 139.52 28.416z"/>
            <glyph unicode="&#xa185;" glyph-name="uniA185"
                   d="M921.6 38.4v819.2h-204.8v-819.2h204.8zM614.4 38.4v563.2h-204.8v-563.2h204.8zM307.2 38.4v409.6h-204.8v-409.6h204.8z"/>
            <glyph unicode="&#xa200;" glyph-name="uniA200"
                   d="M307.2 755.2v-665.6h232.448q105.984 0 166.912 51.2 61.44 50.688 61.44 141.824 0 64.512-26.112 102.912-26.624 38.912-85.504 52.736v4.608q43.52 7.68 69.632 46.080t26.112 97.792q0 88.064-59.904 128-58.88 40.448-191.488 40.448h-193.536zM438.784 491.52v147.968h69.632q55.808 0 82.432-16.384 26.112-16.896 26.112-54.784 0-40.96-24.064-58.88t-77.312-17.92h-76.8zM438.784 379.392h81.92q110.592 0 110.592-82.432 0-46.592-26.112-68.608-25.6-22.016-80.384-22.016h-86.016v173.056z"/>
            <glyph unicode="&#xa201;" glyph-name="uniA201"
                   d="M756.736 652.8h-109.056l-143.36-460.8h108.544l-31.744-102.4h-345.6l31.744 102.4h109.568l143.36 460.8h-109.056l31.744 102.4h345.6z"/>
            <glyph unicode="&#xa203;" glyph-name="uniA203"
                   d="M281.6 601.6q-31.744 0-54.272 22.528t-22.528 54.272 22.528 54.272 54.272 22.528 54.272-22.528 22.528-54.272-22.528-54.272-54.272-22.528zM409.6 704h460.8v-51.2h-460.8v51.2zM281.6 345.6q-31.744 0-54.272 22.528t-22.528 54.272 22.528 54.272 54.272 22.528 54.272-22.528 22.528-54.272-22.528-54.272-54.272-22.528zM409.6 448h460.8v-51.2h-460.8v51.2zM281.6 89.6q-31.744 0-54.272 22.528t-22.528 54.272 22.528 54.272 54.272 22.528 54.272-22.528 22.528-54.272-22.528-54.272-54.272-22.528zM409.6 192h460.8v-51.2h-460.8v51.2z"/>
            <glyph unicode="&#xa204;" glyph-name="uniA204"
                   d="M307.2 601.6v204.8h-35.328l-66.048-52.736 20.48-26.112 23.552 18.944q6.144 5.12 15.36 14.336l-1.024-21.504v-137.728h43.008zM409.6 704h460.8v-51.2h-460.8v51.2zM346.624 348.16v35.84h-88.064v2.048l26.112 24.576q28.672 26.624 35.84 36.352 10.752 13.312 15.36 25.088 5.12 11.776 5.12 26.112 0 16.896-8.192 28.672-7.168 11.776-22.528 18.944t-33.28 7.168q-14.848 0-26.112-3.072-8.704-1.536-21.504-7.68-10.752-6.144-24.576-17.92l23.040-27.648q12.288 9.728 23.040 15.36 10.752 5.12 23.040 5.12 11.776 0 17.92-5.632 6.656-6.144 6.656-18.432 0-7.68-3.072-15.36-3.584-8.192-9.728-16.896-5.632-6.656-29.696-31.744l-50.688-51.2v-29.696h141.312zM409.6 448h460.8v-51.2h-460.8v51.2zM343.552 245.76q0 23.552-18.944 36.352-18.944 13.312-51.2 13.312-39.936 0-68.096-20.48l20.48-30.72q13.824 9.216 23.552 11.776 10.24 3.584 20.992 3.584 29.696 0 29.696-23.552 0-15.872-11.264-22.016t-35.84-6.144h-15.872v-33.792h15.872q26.112 0 38.4-6.144 11.776-6.144 11.776-20.992 0-16.384-10.24-24.064-10.752-7.68-32.256-7.68-13.824 0-29.184 4.096-12.8 3.584-26.624 10.24v-37.888q25.6-11.264 60.416-11.264 40.96 0 62.464 16.896 22.016 16.896 22.016 47.104 0 20.48-13.312 32.768-12.8 12.288-37.888 15.36v1.024q20.48 4.608 33.28 18.944 11.776 14.336 11.776 33.28zM409.6 192h460.8v-51.2h-460.8v51.2z"/>
            <glyph unicode="&#xa205;" glyph-name="uniA205"
                   d="M485.888 283.136q0 57.856-31.232 97.28-22.016 27.136-59.904 35.584t-69.632 1.28q-10.752 62.464 34.048 132.608t115.456 105.472l-71.168 99.84q-54.272-26.112-102.144-66.048t-85.76-91.904-56.32-118.272-9.728-135.936q11.264-92.16 61.184-147.2t124.16-55.040q65.536 0 108.544 38.4 42.496 37.888 42.496 103.936zM898.048 283.136q0 57.856-31.232 97.28-22.016 27.648-59.904 35.84t-69.632 1.024q-10.752 62.464 34.048 132.608t115.456 105.472l-71.168 99.84q-54.272-26.112-102.144-66.048t-85.504-91.904-56.064-118.272-9.728-135.936q11.264-92.16 60.928-147.2t123.904-55.040q65.536 0 108.544 38.4 42.496 37.888 42.496 103.936z"/>
            <glyph unicode="&#xa206;" glyph-name="uniA206"
                   d="M614.4 704v102.4h-460.8v-102.4h460.8zM870.4 499.2v102.4h-716.8v-102.4h716.8zM614.4 294.4v102.4h-460.8v-102.4h460.8zM870.4 89.6v102.4h-716.8v-102.4h716.8z"/>
            <glyph unicode="&#xa207;" glyph-name="uniA207"
                   d="M716.8 704v102.4h-409.6v-102.4h409.6zM870.4 499.2v102.4h-716.8v-102.4h716.8zM716.8 294.4v102.4h-409.6v-102.4h409.6zM870.4 89.6v102.4h-716.8v-102.4h716.8z"/>
            <glyph unicode="&#xa208;" glyph-name="uniA208"
                   d="M870.4 704v102.4h-460.8v-102.4h460.8zM870.4 499.2v102.4h-716.8v-102.4h716.8zM870.4 294.4v102.4h-460.8v-102.4h460.8zM870.4 89.6v102.4h-716.8v-102.4h716.8z"/>
            <glyph unicode="&#xa209;" glyph-name="uniA209"
                   d="M870.4 601.6v204.8h-716.8v-204.8h716.8zM307.2 396.8v102.4h-153.6v-102.4h153.6zM614.4 396.8v102.4h-204.8v-102.4h204.8zM870.4 396.8v102.4h-153.6v-102.4h153.6zM870.4 89.6v204.8h-716.8v-204.8h716.8z"/>
            <glyph unicode="&#xa210;" glyph-name="uniA210"
                   d="M811.008 818.688q18.432 0 36.352-5.632 13.312-4.096 32.768-12.8l17.92 41.472q-39.936 19.968-86.528 19.968-44.032 0-77.824-18.944-33.28-18.944-50.688-55.296-17.408-34.816-17.408-83.456 0-76.288 35.84-116.736t103.424-40.448q45.056 0 81.92 13.312v43.008q-16.384-5.12-37.888-9.728-19.456-4.096-37.888-4.096-45.568 0-68.608 29.184-24.064 27.648-24.064 84.992 0 53.76 24.576 84.48 25.088 30.72 68.096 30.72zM332.8 550.4h53.248l-114.688 307.2h-54.272l-114.688-307.2h52.736l29.696 84.992h117.248zM409.6 857.6v-307.2h111.104q51.712 0 80.384 23.552 28.672 22.528 28.672 64.512 0 30.72-15.36 48.64-14.336 17.92-47.616 24.064v2.048q25.6 4.608 39.936 22.528 14.336 18.944 14.336 45.056 0 39.936-28.672 58.368-27.648 18.432-91.648 18.432h-91.136zM459.776 730.624v84.992h43.52q34.816 0 49.664-9.728 15.872-9.216 15.872-31.232 0-23.552-14.848-33.792-14.336-10.24-45.568-10.24h-48.64zM288.768 678.4h-89.088l27.648 79.872q11.776 33.28 16.384 56.32l7.68-26.624q4.096-13.312 8.704-26.112zM459.776 690.176h50.688q32.768 0 50.176-11.776 16.384-11.776 16.384-35.328 0-26.112-16.384-38.4-15.872-12.288-47.616-12.288h-53.248v97.792zM204.8 294.4l256-256 460.8 409.6-51.2 51.2-409.6-307.2-204.8 153.6z"/>
            <glyph unicode="&#xa211;" glyph-name="uniA211"
                   d="M307.2 806.4l-64-64 115.2-192-192 115.2-64-64v204.8h204.8zM716.8 806.4h204.8v-204.8l-64 64-192-115.2 115.2 192zM358.4 345.6v204.8h307.2v-204.8h-307.2zM102.4 294.4l64-64 192 115.2-115.2-192 64-64h-204.8v204.8zM716.8 89.6l64 64-115.2 192 192-115.2 64 64v-204.8h-204.8z"/>
            <glyph unicode="&#xa212;" glyph-name="uniA212"
                   d="M972.8 857.6v-307.2h-921.6v307.2h921.6zM921.6 601.6v204.8h-819.2v-204.8h819.2zM256 755.2v-102.4h-102.4v102.4h102.4zM409.6 755.2v-102.4h-102.4v102.4h102.4zM563.2 755.2v-102.4h-102.4v102.4h102.4zM716.8 755.2v-102.4h-102.4v102.4h102.4zM870.4 755.2v-102.4h-102.4v102.4h102.4zM972.8 499.2v-460.8h-921.6v460.8h921.6zM921.6 89.6v358.4h-819.2v-358.4h819.2zM256 396.8v-102.4h-102.4v102.4h102.4zM409.6 396.8v-102.4h-102.4v102.4h102.4zM563.2 396.8v-102.4h-102.4v102.4h102.4zM870.4 396.8v-102.4h-256v102.4h256zM563.2 243.2v-102.4h-409.6v102.4h409.6zM716.8 243.2v-102.4h-102.4v102.4h102.4zM870.4 243.2v-102.4h-102.4v102.4h102.4z"/>
            <glyph unicode="&#xa213;" glyph-name="uniA213"
                   d="M716.8 704h-102.4v-292.352q0-73.216-35.84-112.896t-89.6-39.68q-54.272 0-92.416 39.936t-38.144 111.616v293.376h-102.4v-300.544q0-31.232 6.4-61.696t23.040-61.952 41.984-55.296 66.048-38.656 91.904-14.848 92.416 14.592 66.56 37.888 42.24 54.528 23.552 61.696 6.656 61.696v302.592zM716.8 38.4v102.4h-460.8v-102.4h460.8z"/>
            <glyph unicode="&#xa214;" glyph-name="uniA214"
                   d="M102.4 806.4h819.2v-102.4h-819.2v102.4zM102.4 601.6h819.2v-102.4h-819.2v102.4zM102.4 396.8h819.2v-102.4h-819.2v102.4zM102.4 192h819.2v-102.4h-819.2v102.4z"/>
            <glyph unicode="&#xa215;" glyph-name="uniA215"
                   d="M677.376 192h97.28l-211.456 563.2h-102.4l-204.8-563.2h96.256l54.784 153.6h214.016zM599.040 424.448h-163.328l76.288 248.832z"/>
            <glyph unicode="&#xa216;" glyph-name="uniA216"
                   d="M633.856 857.6l134.144-153.6v-51.2h-512v51.2l135.168 153.6h242.688zM512 704q20.992 0 36.096 15.104t15.104 36.096-15.104 36.096-36.096 15.104-36.096-15.104-15.104-36.096 15.104-36.096 36.096-15.104zM921.6 89.6v614.4q0 20.992-15.104 36.096t-36.096 15.104h-78.848l27.648-32.256v-121.344h-614.4v121.856l28.16 31.744h-79.36q-20.992 0-36.096-15.104t-15.104-36.096v-614.4q0-20.992 15.104-36.096t36.096-15.104h716.8q20.992 0 36.096 15.104t15.104 36.096zM768 499.2l-102.4-358.4h-102.4l-51.2 256-51.2-256h-106.496l-98.304 358.4h102.4l51.2-256 51.2 256h102.4l51.2-256 51.2 256h102.4z"/>
            <glyph unicode="&#xa217;" glyph-name="uniA217"
                   d="M633.856 857.6l134.144-153.6v-51.2h-512v51.2l135.168 153.6h242.688zM512 704q20.992 0 36.096 14.848t15.104 36.352q0 20.992-15.104 36.096t-36.096 15.104-36.096-15.104-15.104-36.096q0-21.504 15.104-36.352t36.096-14.848zM791.040 755.2h79.36q20.992 0 36.096-15.104t15.104-36.096v-614.4q0-21.504-15.104-36.352t-36.096-14.848h-716.8q-20.992 0-36.096 14.848t-15.104 36.352v614.4q0 20.992 15.104 36.096t36.096 15.104h79.36l-28.16-32.256v-121.344h614.4v121.344zM716.8 396.8v102.4h-409.6v-102.4h153.6v-256h102.4v256h153.6z"/>
            <glyph unicode="&#xa218;" glyph-name="uniA218"
                   d="M731.648 724.992l56.32-56.832q31.232-30.72 31.232-75.264v-108.544q0-44.544-31.232-75.264l-339.456-339.456q-30.72-31.232-75.264-31.232t-75.264 31.232l-56.832 56.32-56.32 56.832q-31.232 30.72-31.232 75.264v108.544q0 44.544 31.232 75.776l339.456 338.944q30.72 31.232 75.264 31.232 44.032 0 75.264-31.232zM413.696 228.352l328.704 328.704q14.848 14.848 14.848 36.352t-14.848 36.864l-109.568 109.568q-14.848 14.848-36.864 14.848-21.504 0-36.352-14.848l-328.704-328.704q-14.848-15.36-14.848-36.864t14.848-36.352l109.568-109.568q14.848-14.848 36.608-14.848t36.608 14.848z"/>
            <glyph unicode="&#xa219;" glyph-name="uniA219"
                   d="M819.2 857.6h-153.6v-51.2h-307.2v51.2h-153.6v-768h153.6v51.2h307.2v-51.2h153.6v768zM307.2 806.4v-51.2h-51.2v51.2h51.2zM768 806.4v-51.2h-51.2v51.2h51.2zM665.6 755.2v-256h-307.2v256h307.2zM307.2 704v-51.2h-51.2v51.2h51.2zM768 704v-51.2h-51.2v51.2h51.2zM307.2 601.6v-51.2h-51.2v51.2h51.2zM768 601.6v-51.2h-51.2v51.2h51.2zM307.2 499.2v-51.2h-51.2v51.2h51.2zM768 499.2v-51.2h-51.2v51.2h51.2zM665.6 448v-256h-307.2v256h307.2zM307.2 396.8v-51.2h-51.2v51.2h51.2zM768 396.8v-51.2h-51.2v51.2h51.2zM307.2 294.4v-51.2h-51.2v51.2h51.2zM768 294.4v-51.2h-51.2v51.2h51.2zM307.2 192v-51.2h-51.2v51.2h51.2zM768 192v-51.2h-51.2v51.2h51.2z"/>
            <glyph unicode="&#xa220;" glyph-name="uniA220"
                   d="M512 683.52q97.28 0 148.992-55.296 51.2-55.296 51.2-160.256 0-98.304-35.328-167.424-16.896-31.744-44.8-57.088t-68.864-51.456v-102.4h307.2v102.4h-188.928q74.752 51.712 108.544 119.808 37.888 78.336 37.888 171.52 0 136.704-84.48 216.064-84.992 79.36-231.424 79.36-146.944 0-231.424-80.384-84.48-79.872-84.48-215.040 0-92.672 37.376-170.496 31.744-66.56 107.52-120.832h-187.392v-102.4h307.2v102.4q-43.008 28.16-71.168 53.76t-43.52 57.344q-34.304 68.096-34.304 164.864 0 105.472 51.2 160.256 50.688 55.296 148.992 55.296z"/>
            <glyph unicode="&#xa221;" glyph-name="uniA221"
                   d="M358.4 755.2v51.2h-204.8v-51.2h204.8zM870.4 704v102.4h-460.8v-102.4h460.8zM358.4 601.6h-102.4v102.4l-204.8-179.2 204.8-179.2v102.4h102.4v153.6zM870.4 550.4v102.4h-460.8v-102.4h460.8zM768 396.8v102.4h-358.4v-102.4h358.4zM870.4 243.2v102.4h-460.8v-102.4h460.8zM358.4 243.2v51.2h-204.8v-51.2h204.8zM563.2 89.6v102.4h-153.6v-102.4h153.6z"/>
            <glyph unicode="&#xa222;" glyph-name="uniA222"
                   d="M153.6 704v102.4h460.8v-102.4h-460.8zM665.6 755.2v51.2h204.8v-51.2h-204.8zM665.6 601.6h102.4v102.4l204.8-179.2-204.8-179.2v102.4h-102.4v153.6zM153.6 550.4v102.4h460.8v-102.4h-460.8zM256 396.8v102.4h358.4v-102.4h-358.4zM153.6 243.2v102.4h460.8v-102.4h-460.8zM665.6 243.2v51.2h204.8v-51.2h-204.8zM460.8 89.6v102.4h153.6v-102.4h-153.6z"/>
            <glyph unicode="&#xa223;" glyph-name="uniA223"
                   d="M870.4 448q0 97.28-48.128 179.968t-130.56 130.56-179.712 47.872q-73.216 0-139.52-28.416t-114.176-76.288-76.288-114.176-28.416-139.52 28.416-139.52 76.288-114.176 114.176-76.288 139.52-28.416q97.28 0 179.712 47.872t130.56 130.56 48.128 179.968zM547.84 372.224h-79.872v22.016q0 28.672 12.288 50.176 11.264 19.968 45.056 45.568 31.232 22.016 41.472 36.352 10.24 13.312 10.24 31.744 0 18.944-14.336 29.696-14.336 9.728-40.448 9.728-45.056 0-102.4-29.184l-32.768 65.536q67.072 37.888 141.824 37.888 61.44 0 98.304-29.696 36.352-29.696 36.352-79.36 0-33.792-14.848-56.832-13.824-23.040-56.832-54.272-28.16-20.48-36.352-32.256-7.68-11.264-7.68-29.184v-17.92zM472.576 231.936q-13.824 13.312-13.824 37.376 0 25.6 13.312 38.4t39.424 12.8q24.064 0 38.4-13.312 13.824-13.312 13.824-37.888 0-24.064-13.824-36.864-13.824-13.824-38.4-13.824t-38.912 13.312z"/>
            <glyph unicode="&#xa224;" glyph-name="uniA224"
                   d="M809.984 332.8q20.48 0 37.888 3.584 16.896 3.584 37.376 10.24v-43.008q-35.84-13.312-80.896-13.312-67.072 0-102.912 40.448-30.208 34.304-34.816 91.648h-48.128q9.216-16.384 9.216-40.448 0-40.96-28.16-64.512-29.184-23.040-79.872-23.040h-110.080v128h-72.192l47.616-128h-52.736l-30.208 85.504h-116.736l-29.696-85.504h-53.248l47.616 128h-47.616v51.2h67.072l47.616 127.488h54.272l47.104-127.488h91.136v128h90.624q58.88 0 90.624-20.992 28.16-18.432 28.16-57.856 0-26.624-13.824-44.544l-4.096-4.608h66.048q4.096 31.744 15.872 56.32 18.432 36.352 50.176 54.272 32.768 18.944 77.312 18.944 47.616 0 86.528-19.456l-17.92-41.472q-13.312 6.656-32.768 12.8-17.92 5.632-36.352 5.632-42.496 0-67.072-30.208-17.92-22.528-22.528-56.832h150.016v-51.2h-151.040q4.608-39.424 22.528-60.928 23.040-28.672 68.096-28.672zM227.328 501.248l-9.216-27.648h53.248l-11.264 31.232q-1.024 2.56-3.84 11.264t-4.864 14.848q-6.144 20.992-7.168 26.112-7.168-30.208-16.896-55.808zM459.264 557.056v-83.456h60.928q19.968 1.536 32.768 9.216 14.336 9.728 14.336 33.792 0 21.504-15.36 31.232-15.36 9.216-49.664 9.216h-43.008zM288.768 421.888v0.512h-88.576v-0.512h88.576zM559.104 421.376l-1.536 1.024h-98.304v-86.016h53.248q30.72 0 47.104 11.776 15.872 12.288 15.872 37.888 0 23.552-16.384 35.328z"/>
            <glyph unicode="&#xa225;" glyph-name="uniA225"
                   d="M908.288 844.288q64.512-65.024 64.512-156.16t-64.512-156.16l-78.336-77.824q-23.040-23.552-55.296-39.424l-109.056 33.28 86.528 83.968 38.912 39.424 38.912 38.912q32.256 32.256 32.256 77.824t-32.256 77.824q-32.256 32.768-77.824 32.768t-77.824-32.768l-39.424-38.912-38.912-38.912-83.968-86.528-33.28 109.568q15.872 32.256 39.424 54.784l77.824 78.336q65.024 64.512 156.416 64.512t155.904-64.512zM102.4 755.2l409.6-307.2-307.2 409.6zM307.2 857.6l204.8-409.6-102.4 409.6h-102.4zM102.4 652.8l409.6-204.8-409.6 102.4v102.4zM479.232 259.072l32.768 35.328 37.888-120.32-70.656-71.168q-65.024-64.512-156.16-64.512t-156.16 64.512q-64.512 64.512-64.512 156.16t64.512 156.16l71.168 70.656 120.32-37.888-35.328-32.768-77.824-78.336q-32.768-32.256-32.768-77.824t32.768-77.824q32.256-32.768 77.824-32.768t77.824 32.768zM921.6 140.8l-409.6 307.2 307.2-409.6zM716.8 38.4l-204.8 409.6 102.4-409.6h102.4zM921.6 243.2l-409.6 204.8 409.6-102.4v-102.4z"/>
            <glyph unicode="&#xa226;" glyph-name="uniA226"
                   d="M192.512 140.8h638.976q90.112 112.128 90.112 256 0 83.456-32.512 159.232t-87.296 130.56-130.56 87.296-159.232 32.512-159.232-32.512-130.56-87.296-87.296-130.56-32.512-159.232q0-143.872 90.112-256zM512 755.2q20.992 0 36.096-15.104t15.104-36.096-15.104-36.096-36.096-15.104-36.096 15.104-15.104 36.096 15.104 36.096 36.096 15.104zM307.2 652.8q20.992 0 36.096-15.104t15.104-36.096-15.104-36.096-36.096-15.104-36.096 15.104-15.104 36.096 15.104 36.096 36.096 15.104zM716.8 652.8q20.992 0 36.096-15.104t15.104-36.096-15.104-36.096-36.096-15.104-36.096 15.104-15.104 36.096 15.104 36.096 36.096 15.104zM441.856 368.64l172.544 232.96v-307.2q0-41.984-30.208-72.192t-72.192-30.208-72.192 30.208-30.208 72.192q0 43.52 32.256 74.24zM204.8 448q20.992 0 36.096-15.104t15.104-36.096-15.104-36.096-36.096-15.104-36.096 15.104-15.104 36.096 15.104 36.096 36.096 15.104zM819.2 448q20.992 0 36.096-15.104t15.104-36.096-15.104-36.096-36.096-15.104-36.096 15.104-15.104 36.096 15.104 36.096 36.096 15.104zM563.2 294.4q0 20.992-15.104 36.096t-36.096 15.104-36.096-15.104-15.104-36.096 15.104-36.096 36.096-15.104 36.096 15.104 15.104 36.096z"/>
            <glyph unicode="&#xa227;" glyph-name="uniA227"
                   d="M256 38.4v768h-102.4v-768h102.4zM307.2 345.6v409.6q42.496 14.336 96.768 14.592t109.824-7.168 112.896-14.848 122.368-6.912 121.344 14.336v-409.6q-42.496-17.92-102.912-19.968t-117.504 6.656-122.368 16.64-117.504 9.984-102.912-13.312z"/>
            <glyph unicode="&#xa228;" glyph-name="uniA228"
                   d="M153.6 755.2h716.8v-102.4h-716.8v102.4zM153.6 499.2h716.8v-102.4h-716.8v102.4zM153.6 243.2h716.8v-102.4h-716.8v102.4z"/>
            <glyph unicode="&#xa229;" glyph-name="uniA229"
                   d="M153.6 446.464l307.2 206.336v-409.6zM563.2 652.8l307.2-206.336-307.2-203.264v409.6z"/>
            <glyph unicode="&#xa230;" glyph-name="uniA230"
                   d="M512 857.6q-83.456 0-154.112-41.216t-111.872-111.872-41.216-154.112q0-72.704 35.84-136.448t93.696-113.92q2.048-1.536 12.032-9.984t15.104-13.056 15.36-14.080 17.664-16.896 16.896-18.176 17.664-21.504q68.096-89.088 82.944-138.752 14.848 49.664 82.944 138.752 8.192 10.752 17.664 21.504t16.896 18.176 17.664 16.896 15.36 14.080 15.104 13.056 12.032 9.984q57.856 50.176 93.696 113.92t35.84 136.448q0 83.456-41.216 154.112t-111.872 111.872-154.112 41.216zM512 726.528q72.704 0 124.416-51.712t51.712-124.416-51.712-124.416-124.416-51.712-124.416 51.712-51.712 124.416 51.712 124.416 124.416 51.712z"/>
            <glyph unicode="&#xa231;" glyph-name="uniA231"
                   d="M665.6 287.232l59.904 304.128q30.72 16.896 49.408 46.848t18.688 65.792q0 53.248-37.376 90.624t-90.624 37.376-90.624-37.376-37.376-90.624q0-35.84 18.688-65.792t49.408-46.848zM665.6 780.8q31.744 0 54.272-22.528t22.528-54.272-22.528-54.272-54.272-22.528-54.272 22.528-22.528 54.272 22.528 54.272 54.272 22.528zM753.664 535.040l167.936 68.096v-460.8l-249.856-103.936-313.344 103.936-256-102.4v460.8l256 102.4 218.624-72.192 88.576-373.76z"/>
            <glyph unicode="&#xa232;" glyph-name="uniA232"
                   d="M204.8 192v153.6h-102.4v512h614.4v-153.6h102.4v-153.6h102.4v-512h-614.4v153.6h-102.4zM563.2 806.4q-41.984 0-72.192-30.208t-30.208-72.192h204.8q0 42.496-29.952 72.448t-72.448 29.952zM204.8 396.8v256h-51.2v-256h51.2zM563.2 550.4h204.8q0 42.496-29.952 72.448t-72.448 29.952q-41.984 0-72.192-30.208t-30.208-72.192zM307.2 243.2v256h-51.2v-256h51.2zM768 294.4q42.496 0 72.448 29.952t29.952 72.448q0 41.984-30.208 72.192t-72.192 30.208-72.192-30.208-30.208-72.192q0-42.496 29.952-72.448t72.448-29.952zM870.4 89.6v102.4q-51.712 0-94.976 8.448t-73.984 22.016-58.88 29.952l-56.32 32.768t-58.88 29.952-73.984 22.016-94.976 8.448v-256h512z"/>
            <glyph unicode="&#xa233;" glyph-name="uniA233"
                   d="M256 806.4h716.8v-563.2h-102.4v-102.4h-102.4v-102.4h-716.8v563.2h102.4v102.4h102.4v102.4zM921.6 294.4v460.8h-614.4v-460.8h614.4zM768 499.2q-41.984 0-72.192 30.208t-30.208 72.192 30.208 72.192 72.192 30.208 72.192-30.208 30.208-72.192-30.208-72.192-72.192-30.208zM819.2 192v51.2h-563.2v409.6h-51.2v-460.8h614.4zM358.4 652.8l512-307.2h-512v307.2zM716.8 89.6v51.2h-563.2v409.6h-51.2v-460.8h614.4z"/>
            <glyph unicode="&#xa234;" glyph-name="uniA234"
                   d="M409.6 704q0 20.992-15.104 36.096t-36.096 15.104h-256q-20.992 0-36.096-15.104t-15.104-36.096q0-21.504 15.616-36.352t35.584-14.848h256q20.992 0 36.096 15.104t15.104 36.096zM716.8 448l204.8 204.8v-512l-204.8 204.8v102.4zM665.6 243.2v307.2q0 20.992-15.104 36.096t-36.096 15.104h-409.6q-20.992 0-36.096-15.104t-15.104-36.096v-307.2q0-20.992 15.104-36.096t36.096-15.104h409.6q20.992 0 36.096 15.104t15.104 36.096z"/>
            <glyph unicode="&#xa235;" glyph-name="uniA235"
                   d="M614.4 294.4v307.2q0 41.984-30.208 72.192t-72.192 30.208h-358.4q-41.984 0-72.192-30.208t-30.208-72.192v-307.2q0-41.984 30.208-72.192t72.192-30.208h358.4q41.984 0 72.192 30.208t30.208 72.192zM665.6 422.4l307.2-230.4v512l-307.2-230.4v-51.2z"/>
            <glyph unicode="&#xa236;" glyph-name="uniA236"
                   d="M972.8 192v512q0 41.984-30.208 72.192t-72.192 30.208h-665.6q-41.984 0-72.192-30.208t-30.208-72.192v-512q0-41.984 30.208-72.192t72.192-30.208h665.6q41.984 0 72.192 30.208t30.208 72.192zM409.6 243.2v409.6l307.2-204.8z"/>
            <glyph unicode="&#xa237;" glyph-name="uniA237"
                   d="M742.4 345.6q63.488 0 108.544-45.056t45.056-108.544-45.056-108.544-108.544-45.056-108.544 45.056-45.056 108.544q0 17.408 4.608 35.328l-224.256 117.76q-45.568-50.688-113.152-50.688-63.488 0-108.544 45.056t-45.056 108.544 45.056 108.544 108.544 45.056q66.56 0 113.152-50.688l224.256 117.76q-4.608 17.92-4.608 35.328 0 63.488 45.056 108.544t108.544 45.056 108.544-45.056 45.056-108.544-45.056-108.544-108.544-45.056q-66.56 0-113.152 50.688l-224.256-117.76q4.608-17.92 4.608-35.328t-4.608-35.328l224.256-117.76q45.568 50.688 113.152 50.688z"/>
            <glyph unicode="&#xa238;" glyph-name="uniA238"
                   d="M921.6 780.8q0-23.552-13.056-42.752t-34.048-27.904v-671.232h-772.608l216.064 344.576q-10.752 18.944-10.752 38.912 0 31.744 22.528 54.272t54.272 22.528 54.272-22.528 22.528-54.272q0-8.704-2.56-18.944l73.728-32.256q23.040 25.6 56.832 25.6 11.264 0 26.112-4.608l183.296 328.192q-30.208 22.528-30.208 60.416 0 31.744 22.528 54.272t54.272 22.528q12.8 0 27.136-5.12l2.56 4.608v-5.632q20.992-8.704 34.048-27.904t13.056-42.752zM823.296 90.112v570.368l-168.448-301.568q10.752-18.944 10.752-38.912 0-31.744-22.528-54.272t-54.272-22.528-54.272 22.528-22.528 54.272l0.512 3.584-83.456 36.864q-20.48-14.848-45.056-14.848-12.288 0-26.112 5.12l-163.84-260.608h629.248z"/>
            <glyph unicode="&#xa239;" glyph-name="uniA239"
                   d="M921.6 38.4l0.512 628.736q23.040 13.824 36.864 37.12t13.824 50.944q0 41.984-30.208 72.192t-72.192 30.208-72.192-30.208-30.208-72.192q0-30.208 16.128-55.040t42.24-37.12l-211.456-336.896q-26.624 19.456-59.392 19.456-31.744 0-57.344-17.408t-37.376-46.080l-109.568 78.336q7.168 17.408 7.168 36.352 0 42.496-29.952 72.448t-72.448 29.952-72.448-29.952-29.952-72.448q0-27.648 13.568-50.688t36.608-36.864l-152.576-270.848h870.4zM870.4 806.4q20.992 0 36.096-15.104t15.104-36.096-15.104-36.096-36.096-15.104-36.096 15.104-15.104 36.096 15.104 36.096 36.096 15.104zM256 448q20.992 0 36.096-15.104t15.104-36.096-15.104-36.096-36.096-15.104-36.096 15.104-15.104 36.096 15.104 36.096 36.096 15.104zM555.52 294.4q20.992 0 36.096-15.104t15.104-36.096-15.104-36.096-36.096-15.104-36.096 15.104-15.104 36.096 15.104 36.096 36.096 15.104z"/>
            <glyph unicode="&#xa240;" glyph-name="uniA240"
                   d="M830.464 663.040q17.92-26.624 12.032-57.6t-32.512-48.896-57.6-12.032-48.896 32.512q-10.752 15.872-28.16 34.304-18.432 17.408-34.304 28.16-18.944 12.8-39.424 20.992-21.504 9.728-43.008 13.312-46.080 10.24-93.184 0.512-22.016-4.608-43.008-13.824-20.48-8.192-39.424-20.992-16.896-11.264-33.792-28.16-17.408-17.408-28.672-34.304-12.288-18.432-20.992-38.912-0.512-1.024-0.512-2.048-6.144-15.36-11.776-36.864h-236.032v153.6h136.192q4.608 8.192 6.144 10.24 21.504 31.744 46.592 56.832 26.112 26.112 56.832 46.592 32.256 22.016 65.536 35.84 36.352 15.36 72.192 22.016 77.312 16.384 154.624 0 35.84-6.656 72.192-22.016 33.28-13.824 65.536-35.84 30.72-20.48 56.832-46.592 25.088-25.088 46.592-56.832zM640 448q0 53.248-37.376 90.624t-90.624 37.376-90.624-37.376-37.376-90.624 37.376-90.624 90.624-37.376 90.624 37.376 37.376 90.624zM193.536 232.96q-17.92 26.624-12.032 57.856t32.512 49.152 57.856 11.776 48.64-32.768q10.752-15.872 28.16-34.304 18.432-17.408 34.304-28.16 18.944-12.8 39.424-20.992 18.432-8.192 43.008-13.312 44.544-9.728 93.184 0 24.576 5.12 43.008 13.312 20.48 8.192 39.424 20.992 16.896 11.264 33.792 28.16 15.872 15.872 28.672 34.304 13.312 20.992 20.992 38.912 0.512 1.024 0.512 2.048 6.144 15.36 11.776 36.864h236.032v-153.6h-136.192q-1.024-1.024-2.816-4.608t-3.328-5.632q-21.504-31.744-46.592-56.832-26.112-26.112-56.832-46.592-32.256-22.016-65.536-35.84-32.768-13.824-72.192-22.016-77.312-16.384-154.624 0-39.424 8.192-72.192 22.016-33.28 13.824-65.536 35.84-30.72 20.48-56.832 46.592-25.088 25.088-46.592 56.832z"/>
            <glyph unicode="&#xa242;" glyph-name="uniA242"
                   d="M921.6 550.4l-256-204.8v153.088q-44.032-1.024-78.080-4.608t-73.472-13.312-72.192-25.856-67.84-43.776-66.816-65.536q11.264 137.728 101.888 215.552t256.512 88.576v156.672zM204.8 243.2h563.2v102.4l102.4 81.92v-286.72h-768v563.2h482.816q-140.288-24.576-225.792-102.4h-154.624v-358.4z"/>
            <glyph unicode="&#xa301;" glyph-name="uniA301"
                   d="M969.728 731.648q-38.4-57.344-93.696-97.28 0.512-7.68 0.512-24.064 0-75.264-22.016-150.784t-67.072-144.64-107.52-122.368-150.016-84.992-187.392-31.744q-155.648 0-288.256 84.48 24.576-2.56 45.056-2.56 130.56 0 232.96 80.384-60.928 1.024-108.8 37.376t-66.304 93.184q19.968-3.584 35.328-3.584 24.064 0 49.152 6.656-65.024 13.312-107.776 65.024t-42.752 119.296v2.048q40.96-22.016 84.992-23.552-38.4 26.112-60.928 67.328t-22.528 89.344q0 51.2 25.6 94.208 70.656-86.528 171.264-138.496t215.808-57.6q-5.12 23.040-5.12 43.008 0 77.312 55.040 132.352t132.864 55.040q81.92 0 137.216-59.392 64.512 13.312 119.296 45.568-22.016-67.584-82.944-103.424 54.784 5.632 108.032 29.184z"/>
            <glyph unicode="&#xa302;" glyph-name="uniA302"
                   d="M309.76 857.6q-44.544 0-76.032-31.488t-31.488-76.032v-464.896q0-3.072-0.512-4.608 0-107.008 60.16-172.8t175.36-68.864q1.024 0 3.584-0.256t4.096-0.256h266.752q44.032 0 75.776 31.744t31.744 76.288-31.744 76.032-75.776 31.488h-278.528q-15.36 0-15.36 19.968v155.136h293.888q44.032 0 75.776 31.488t31.744 76.032-31.744 76.288-75.776 31.744h-293.888v105.472q0 44.544-31.744 76.032t-76.288 31.488z"/>
            <glyph unicode="&#xa303;" glyph-name="uniA303"
                   d="M763.904 38.4h157.696q0 109.568-29.44 214.016t-82.432 192.768-128.512 162.816-165.376 126.72-196.096 81.152-217.344 28.928v-154.624q107.52 0 208.384-33.024t182.272-93.184 142.592-140.288 94.72-179.712 33.536-205.568zM485.376 38.4h157.696q0 108.032-43.008 206.592t-115.456 169.984-172.544 113.664-209.664 42.24v-154.624q76.8 0 146.432-28.672t124.416-81.92q54.272-53.248 83.2-122.368t28.928-144.896zM211.456 39.424q45.056 0 77.056 31.232t32 75.776q0 44.032-32 75.52t-77.056 31.488-77.056-31.488-32-75.52q0-44.544 31.744-75.776t77.312-31.232z"/>
            <glyph unicode="&#xa304;" glyph-name="uniA304"
                   d="M147.968 857.6h728.576q18.944 0 32-13.056t13.056-32v-729.088q0-18.432-13.056-31.744t-32-13.312h-208.896v317.44h106.496l15.872 123.392h-122.368v78.848q0 30.208 12.8 45.312t48.64 15.104h65.536v110.592q-33.792 4.608-95.232 4.608-72.704 0-115.968-42.752t-43.264-120.576v-91.136h-107.008v-123.392h107.008v-317.44h-392.192q-18.944 0-32.256 13.312t-13.312 31.744v729.088q0 18.944 13.312 32t32.256 13.056z"/>
            <glyph unicode="&#xa305;" glyph-name="uniA305"
                   d="M433.152 38.4h150.016v373.76h125.44l18.944 145.408h-144.384v93.184q0 35.328 15.104 52.992t57.088 17.664h77.312v130.56q-48.64 5.632-112.128 5.632-85.504 0-136.448-50.432t-50.944-142.080v-107.52h-125.952v-145.408h125.952v-373.76z"/>
            <glyph unicode="&#xa306;" glyph-name="uniA306"
                   d="M307.2 704v102.4h-153.6v-102.4h153.6zM921.6 192v563.2h-460.8l-102.4-102.4h-256v-460.8h819.2zM563.2 601.6q63.488 0 108.544-45.056t45.056-108.544-45.056-108.544-108.544-45.056-108.544 45.056-45.056 108.544 45.056 108.544 108.544 45.056z"/>
            <glyph unicode="&#xa307;" glyph-name="uniA307"
                   d="M411.136 731.648q-3.584-20.48-2.304-43.776t10.496-47.104 21.504-43.008 31.232-31.232 39.936-12.032q25.6 0 48.128 18.432t34.816 45.568 18.176 57.856-0.768 55.296q-8.192 36.864-37.12 60.16t-63.232 23.296q-34.816 0-63.488-23.296t-37.376-60.16zM199.68 685.568q-6.656-28.16 2.048-62.976t31.488-60.928 51.968-26.112 51.968 26.112 31.488 60.928 2.048 62.976q-7.168 31.232-31.744 51.2t-53.76 19.968-53.76-19.968-31.744-51.2zM653.312 685.568q-6.656-28.16 2.048-62.976t31.488-60.928 51.456-26.112q29.184 0 51.968 26.112t31.488 60.928 2.048 62.976q-7.168 31.232-31.744 51.2t-53.76 19.968-53.504-19.968-31.488-51.2zM623.104 100.352l64 220.16q18.944 64.512 3.072 110.080t-62.464 70.656-115.712 25.088q-105.984 0-155.648-55.808t-20.48-150.016l64.512-220.16q8.704-27.136 40.704-44.544t70.912-17.408q38.4 0 70.4 17.408t40.704 44.544zM310.784 491.008q-54.784-75.264-21.504-183.808l57.344-194.048q-27.136-15.872-61.44-15.872-33.28 0-60.16 14.592t-34.56 38.144l-54.784 186.88q-24.576 79.872 17.408 126.976t132.096 47.104q20.992 0 40.448-3.072-5.632-5.632-14.848-16.896zM738.304 510.976q90.112 0 132.352-47.104t17.152-126.976l-54.784-186.88q-7.68-23.552-34.56-38.144t-60.16-14.592q-34.304 0-61.44 15.872l56.832 193.024q34.304 110.080-21.504 184.832-6.656 9.216-14.336 16.896 19.456 3.072 40.448 3.072z"/>
            <glyph unicode="&#xa308;" glyph-name="uniA308"
                   d="M906.24 636.416l72.192-72.704-177.664-174.592-72.704 72.704 43.008 41.984q-27.648 66.048-77.312 118.272l-236.032-337.408-269.312-240.64q-14.848-14.848-36.096-14.848t-36.608 14.848l-61.44 61.952q-14.848 14.848-14.848 36.096t14.848 36.096l561.664 507.904q-118.272 74.24-290.304 75.776 210.944 64 336.896 15.36 12.8-5.12 25.6-12.032t22.784-12.8 23.040-16.896 20.224-16.64 20.48-19.968 18.176-19.2 18.944-22.016 16.896-20.48 17.664-22.528 16.384-20.736z"/>
            <glyph unicode="&#xa309;" glyph-name="uniA309"
                   d="M437.76 803.328q10.24-3.584 10.752-11.264t-5.632-18.176-15.36-22.784-16.384-26.368-9.984-27.648 4.608-27.904 26.88-26.112q11.776-8.704 31.232-2.56t38.4 18.944 42.24 32.512 42.752 37.888 39.936 35.328 33.28 24.32q19.968 11.264 43.264 15.36t48.64 0 49.152-24.064 39.68-54.272q16.896-36.864 20.992-93.184t-7.424-122.624-35.84-130.816-69.12-123.904-102.656-95.744q-59.904-37.888-126.208-54.272t-129.28-10.24-119.552 29.952-101.632 67.84-71.168 102.912q-14.848 33.792-20.224 72.192t-1.28 75.52 15.36 75.52 29.44 72.96 40.448 67.072 48.64 58.112 54.528 46.592 57.856 31.744 58.112 14.080 55.552-6.912zM499.712 473.088q15.36-34.816 64.512-28.672 46.592 6.144 88.576 43.008 49.152 44.032 47.616 95.744-0.512 17.408-6.656 33.28-13.312 33.28-63.488 16.896-47.104-14.848-90.112-57.344-48.128-48.128-44.544-87.552 1.024-8.192 4.096-15.36z"/>
            <glyph unicode="&#xa310;" glyph-name="uniA310"
                   d="M204.8 652.8h307.2v102.4h-409.6v-614.912h409.6v102.912h-307.2v409.6zM307.2 550.4h307.2v153.6l307.2-256-307.2-256v153.6h-307.2v204.8z"/>
            <glyph unicode="&#xa311;" glyph-name="uniA311"
                   d="M192.512 89.088h638.976q90.112 113.152 90.112 256.512 0 82.944-32.512 158.976t-87.296 130.816-130.56 87.296-159.232 32.512-159.232-32.512-130.56-87.296-87.296-130.816-32.512-158.976q0-143.36 90.112-256.512zM460.8 652.8q0 20.992 15.104 36.096t36.096 15.104 36.096-15.104 15.104-36.096q0-21.504-15.104-36.352t-36.096-14.848-36.096 14.848-15.104 36.352zM204.8 550.4q0 20.992 15.104 36.096t36.096 15.104 36.096-15.104 15.104-36.096q0-21.504-15.104-36.352t-36.096-14.848-36.096 14.848-15.104 36.352zM436.224 376.32q18.944 18.944 102.4 63.744t157.184 80.128l73.728 35.328q-15.36-32.768-39.168-82.176t-72.192-140.8-67.328-110.336q-32.256-32.256-77.312-32.256t-77.312 32.256q-31.744 31.744-31.744 77.056t31.744 77.056zM153.6 294.4q0 20.992 15.104 36.096t36.096 15.104 36.096-15.104 15.104-36.096q0-21.504-15.104-36.352t-36.096-14.848-36.096 14.848-15.104 36.352zM460.8 294.4q0 20.992 15.104 36.096t36.096 15.104 36.096-15.104 15.104-36.096q0-21.504-15.104-36.352t-36.096-14.848-36.096 14.848-15.104 36.352zM768 294.4q0 20.992 15.104 36.096t36.096 15.104 36.096-15.104 15.104-36.096q0-21.504-15.104-36.352t-36.096-14.848-36.096 14.848-15.104 36.352z"/>
            <glyph unicode="&#xa312;" glyph-name="uniA312"
                   d="M870.4 550.4h51.2v-563.2h-819.2v563.2h51.2v102.4q0 69.632 34.304 128.512t93.184 93.184 128.512 34.304q53.76 0 102.4-21.504 48.64 21.504 102.4 21.504 69.632 0 128.512-34.304t93.184-93.184 34.304-128.512v-102.4zM256 652.8v-102.4h102.4v102.4q0 83.968 52.224 153.6h-1.024q-63.488 0-108.544-45.056t-45.056-108.544zM768 550.4v102.4q0 63.488-45.056 108.544t-108.544 45.056h-1.024q52.224-69.632 52.224-153.6v-102.4h102.4zM512 766.464q-51.2-46.080-51.2-113.664v-102.4h102.4v102.4q0 67.584-51.2 113.664z"/>
            <glyph unicode="&#xa313;" glyph-name="uniA313"
                   d="M228.352 695.808l27.648-117.76-27.648-117.248 102.912-63.488 62.976-102.912 117.76 27.648 117.76-27.648 62.976 102.912 102.912 63.488-27.648 117.248 27.648 117.76-102.4 63.488-63.488 102.912-117.76-28.16-117.248 27.648-64-102.4zM512.512 371.2q-85.504 0-145.408 59.904t-59.904 145.408q0 84.48 60.16 144.384t145.152 59.904q84.48 0 144.384-59.904t59.904-144.384q0-84.992-59.904-145.152t-144.384-60.16zM511.488 422.4q-63.488 0-108.288 44.8t-44.8 108.8q0 63.488 44.8 108.544t108.288 45.056 108.8-45.056 45.312-108.544-45.056-108.544-109.056-45.056zM708.096 366.080l-65.536-114.688-106.496 24.064 129.536-298.496 71.68 112.64h128zM313.856 362.496l64-115.2 109.056 26.112-128.512-296.448-71.68 112.64h-128z"/>
            <glyph unicode="&#xa314;" glyph-name="uniA314"
                   d="M102.4 857.6h358.4v-358.4h-358.4v358.4zM563.2 857.6v-358.4h358.4v358.4h-358.4zM281.6 729.6l76.8 76.8h-153.6zM614.4 550.4v256h256v-256h-256zM230.4 678.4l-76.8 76.8v-153.6zM409.6 755.2l-76.8-76.8 76.8-76.8v153.6zM281.6 627.2l-76.8-76.8h153.6zM460.8 38.4v358.4h-358.4v-358.4h358.4zM921.6 38.4h-358.4v358.4h358.4v-358.4zM409.6 345.6v-256h-256v256h256zM742.4 268.8l76.8 76.8h-153.6zM614.4 140.8l76.8 76.8-76.8 76.8v-153.6zM793.6 217.6l76.8-76.8v153.6zM742.4 166.4l-76.8-76.8h153.6z"/>
            <glyph unicode="&#xa315;" glyph-name="uniA315"
                   d="M768 652.8v-102.4q41.984 0 72.192-30.208t30.208-72.192v-358.4q0-41.984-30.208-72.192t-72.192-30.208h-512q-41.984 0-72.192 30.208t-30.208 72.192v358.4q0 41.984 30.208 72.192t72.192 30.208v102.4q0 69.632 34.304 128.512t93.184 93.184 128.512 34.304 128.512-34.304 93.184-93.184 34.304-128.512zM409.6 652.8v-102.4h204.8v102.4q0 41.984-30.208 72.192t-72.192 30.208-72.192-30.208-30.208-72.192zM552.96 128v111.104q27.648 12.288 44.544 37.632t16.896 56.064q0 42.496-30.208 72.448t-72.192 29.952-72.192-29.952-30.208-72.448q0-30.72 16.896-56.064t44.544-37.632v-111.104h81.92z"/>
            <glyph unicode="&#xa316;" glyph-name="uniA316"
                   d="M717.312 755.2v-307.2h102.4v409.6h-614.912v-409.6h102.912v307.2h409.6zM614.912 652.8v-307.2h153.6l-256-307.2-256 307.2h153.6v307.2h204.8z"/>
            <glyph unicode="&#xa317;" glyph-name="uniA317"
                   d="M409.6 243.2v307.2h-153.6l256 307.2 256-307.2h-153.6v-307.2h-204.8zM307.2 140.8v307.2h-102.4v-409.6h614.912v409.6h-102.912v-307.2h-409.6z"/>
            <glyph unicode="&#xa318;" glyph-name="uniA318"
                   d="M256 601.6h665.6v-512h-819.2v665.6h358.4l102.4-102.4h-358.4v-460.8h51.2v409.6z"/>
            <glyph unicode="&#xa319;" glyph-name="uniA319"
                   d="M972.8 448q0 93.696-36.608 178.944t-98.304 146.944-146.944 98.304-178.944 36.608-178.944-36.608-146.944-98.304-98.304-146.944-36.608-178.944 36.608-178.944 98.304-146.944 146.944-98.304 178.944-36.608 178.944 36.608 146.944 98.304 98.304 146.944 36.608 178.944zM409.6 442.88q-193.536 19.968-280.576 117.248 37.888 122.88 139.008 202.752t232.192 85.504q-16.896-28.16-28.672-64.512t-16.384-76.288 6.144-79.104 37.376-65.28q-17.92-2.56-35.328 3.072t-29.952 15.36-26.112 20.48-23.296 18.432-22.016 8.96-22.528-7.424q-45.056-35.328-21.504-76.8 25.6-45.056 116.736-73.728 31.744-10.24 68.608-16.896 49.664-8.704 84.224-20.736t54.528-25.344 30.72-32 13.824-36.352 2.56-43.264q-3.072-152.576-207.872-240.64 1.024 44.032-5.888 78.336t-19.456 55.808-28.16 37.632-32.512 26.624-32 18.944-27.648 18.688-18.176 22.016q5.12 21.504 9.472 34.56t14.080 31.488 26.624 33.792 41.984 28.672zM844.288 664.064q15.872-24.576 27.904-49.92t19.712-47.36 11.776-45.568 5.888-41.472 0.768-38.656-2.304-33.792-5.12-29.952-5.888-23.808-6.144-19.2l-3.584-12.288q-10.752 26.112-26.624 48.896t-30.976 38.144-29.44 29.696-25.856 30.72-16.64 33.792q-19.968 70.144 86.528 160.768z"/>
            <glyph unicode="&#xa320;" glyph-name="uniA320"
                   d="M282.624 857.6h380.416q20.992 0 36.096-15.104t15.104-36.096-15.104-36.096-36.096-15.104h-51.2v-665.6q0-20.992-15.104-36.096t-36.096-15.104-36.096 15.104-15.104 36.096v614.4q0 20.992-15.104 36.096t-36.096 15.104-36.096-15.104-15.104-36.096v-614.4q0-20.992-15.104-36.096t-36.096-15.104-36.096 15.104-15.104 36.096v305.152h-22.016q-62.976 0-116.224 30.976t-84.224 84.224-30.976 116.224 30.976 116.224 84.224 84.224 116.224 30.976zM716.8 243.2l256 204.8-256 204.8v-409.6z"/>
            <glyph unicode="&#xa321;" glyph-name="uniA321"
                   d="M698.88 812.544q74.24-37.888 126.976-101.376t76.288-137.472 17.92-156.16-43.52-156.416-101.376-126.72-137.216-76.288-156.16-18.176-156.672 43.52q-70.656 36.352-121.344 94.72t-76.288 130.56l83.968 52.736q17.408-61.44 58.112-111.616t99.584-80.896q56.832-29.184 119.808-33.536t119.296 13.824 104.704 58.624 77.568 97.28 33.792 119.808-13.824 119.296-58.624 104.96-97.024 77.824-119.808 33.536-119.296-13.824-104.704-58.624-77.568-97.28l96.256-49.664-253.44-157.696-19.968 297.984 91.136-46.592q37.888 74.24 101.632 126.976t137.728 76.288 156.16 17.664 155.904-43.264zM475.648 411.648q-14.848 14.848-14.848 36.352 0 2.048 1.024 5.12t1.024 4.608h-0.512l49.664 246.272 49.664-246.272 155.136-163.328-230.4 108.544 1.024 1.024q-6.656 3.584-11.776 7.68z"/>
            <glyph unicode="&#xa322;" glyph-name="uniA322"
                   d="M204.8 704h-164.864q-15.36 0-26.368-12.032t-8.96-30.976l79.872-511.488q94.72 376.832 113.152 467.456 4.096 18.432 18.688 27.136t31.488 8.704h264.192q-35.84 106.496-39.424 118.272-9.728 35.328-39.936 35.328h-169.472q-14.336 0-25.856-8.704t-15.104-24.064zM454.656 704h-204.8q1.024 2.048 2.56 5.632t6.4 12.288 9.984 15.36 12.032 12.288 13.568 5.632h109.056q10.752 0 23.552-12.8t20.48-25.6zM136.704 128q-25.088-38.4-64.512-38.4h805.376q20.48 0 34.56 11.264t18.176 31.232l86.016 432.128q2.56 17.92-7.68 27.648t-24.064 9.728h-165.376v75.264q0 7.68-9.984 17.408t-23.808 9.728h-192.512q-11.776 0-23.040-7.424t-16.384-15.104l-5.12-7.168-36.352-72.704h-225.792q-12.8 0-23.040-6.912t-12.288-18.688q-81.408-343.040-88.064-375.296-8.704-47.104-26.112-72.704zM787.456 601.6h-224.256q1.024 2.048 3.328 5.632t8.96 12.288 13.056 15.36 15.616 12.288 16.896 5.632h117.248q10.24 0 18.944-5.376t14.080-12.8 9.216-14.848 5.376-13.056z"/>
            <glyph unicode="&#xa323;" glyph-name="uniA323"
                   d="M563.2 857.6h358.4v-358.4l-512-512-358.4 358.4zM716.8 550.4q41.984 0 72.192 30.208t30.208 72.192-30.208 72.192-72.192 30.208-72.192-30.208-30.208-72.192 30.208-72.192 72.192-30.208z"/>
            <glyph unicode="&#xa324;" glyph-name="uniA324"
                   d="M1024 448q0 103.936-40.704 198.656t-109.312 163.328-163.328 109.312-198.656 40.704-198.912-40.704-163.584-109.312-109.056-163.328-40.448-198.656q0-83.456 25.856-161.536t73.216-141.056 110.336-110.336 141.056-73.216 161.536-25.856q103.936 0 198.656 40.448t163.328 109.056 109.312 163.584 40.704 198.912zM398.336 173.056l-174.592 468.48 59.904 4.096q12.288 1.536 16.384 15.872t-1.536 27.904-17.92 13.056q-74.24-5.632-121.344-5.632-18.944 0-29.696 0.512 61.952 95.232 163.072 150.528t219.392 55.296q88.064 0 167.68-31.232t142.080-88.576q-29.696 4.608-57.088-17.152t-27.392-63.744q0-9.216 2.304-19.2t4.352-16.64 8.192-18.688 8.704-16.128 11.52-18.944 11.008-17.92q28.16-49.152 28.16-125.952 0-33.792-17.92-97.792t-35.84-111.104l-17.92-47.104-155.136 428.544q12.288 0.512 22.784 2.56t15.104 4.096l4.096 2.048q12.288 1.024 16.384 16.896t-1.536 30.976-17.92 14.592q-73.728-6.144-121.856-6.144-19.968 0-49.664 1.536t-49.664 3.072l-19.968 1.536q-12.288 0.512-17.92-14.848t-1.536-31.232 16.384-16.384l47.104-4.096 64.512-174.592zM891.392 448q6.144 16.384 8.96 24.064t8.448 30.976 7.424 43.52 1.792 52.224-4.608 66.816q53.76-98.816 53.76-217.6 0-125.44-60.928-232.192t-164.352-166.144q126.464 338.432 149.504 398.336zM312.32 33.792q-115.712 55.808-185.6 167.936t-69.888 246.272q0 100.352 36.864 183.808 172.032-471.552 218.624-598.016zM518.656 373.248l132.096-357.376q-68.096-23.040-138.752-23.040-61.952 0-117.248 16.896 14.336 42.496 57.6 168.704t66.304 194.816z"/>
            <glyph unicode="&#xa325;" glyph-name="uniA325"
                   d="M921.6 294.4h51.2q20.992 0 36.096-15.104t15.104-36.608v-152.576q0-21.504-15.104-36.608t-36.096-15.104h-204.8q-20.992 0-36.096 15.104t-15.104 36.608v152.576q0 21.504 15.104 36.608t36.096 15.104h51.2v102.4h-256v-102.4h51.2q20.992 0 36.096-15.104t15.104-36.608v-152.576q0-21.504-15.104-36.608t-36.096-15.104h-204.8q-20.992 0-36.096 15.104t-15.104 36.608v152.576q0 21.504 15.104 36.608t36.096 15.104h51.2v102.4h-256v-102.4h51.2q20.992 0 36.096-15.104t15.104-36.608v-152.576q0-21.504-15.104-36.608t-36.096-15.104h-204.8q-20.992 0-36.096 15.104t-15.104 36.608v152.576q0 21.504 15.104 36.608t36.096 15.104h51.2v102.4q0 41.984 30.208 72.192t72.192 30.208h256v102.4h-51.2q-20.992 0-36.096 15.104t-15.104 36.608v152.576q0 21.504 15.104 36.608t36.096 15.104h204.8q20.992 0 36.096-15.104t15.104-36.608v-152.576q0-21.504-15.104-36.608t-36.096-15.104h-51.2v-102.4h256q41.984 0 72.192-30.208t30.208-72.192v-102.4z"/>
            <glyph unicode="&#xa326;" glyph-name="uniA326"
                   d="M563.2 601.6h-77.312q-23.552 0-45.824-9.984t-35.584-25.856l-46.080 138.24h-146.944l-122.368-358.4h86.528l37.888 102.4h144.896v-204.8h-256q-41.984 0-72.192 30.208t-30.208 72.192v358.4q0 41.984 30.208 72.192t72.192 30.208h358.4q41.984 0 72.192-30.208t30.208-72.192v-102.4zM333.312 499.2h-103.424l51.2 150.016zM512 550.4h358.4q41.984 0 72.192-30.208t30.208-72.192v-358.4q0-41.984-30.208-72.192t-72.192-30.208h-358.4q-41.984 0-72.192 30.208t-30.208 72.192v358.4q0 41.984 30.208 72.192t72.192 30.208zM883.2 294.4v55.296h-162.304v111.104h-59.392v-111.104h-162.304v-55.296h65.536q4.608-33.792 21.504-69.632t44.032-64.512q-32.768-13.312-67.328-22.528t-50.944-9.216l2.56-13.312q2.56-13.312 5.376-31.744t2.304-29.696q31.744 0 78.848 16.64t89.088 42.24q42.496-25.6 90.624-42.24t80.384-16.64q-0.512 7.168 0.512 17.152t2.56 19.712 3.072 18.176 3.072 14.080l1.024 5.632q-16.896 0-52.736 9.472t-69.12 22.784q26.112 28.672 42.752 64.512t21.248 69.12h69.632zM688.128 195.584q-38.912 35.84-51.712 98.816h107.008q-13.312-63.488-51.2-98.816l-2.048-1.536q-1.536 1.024-2.048 1.536z"/>
            <glyph unicode="&#xa327;" glyph-name="uniA327"
                   d="M757.76 863.744l171.008-171.52q20.992-22.528 20.736-53.248t-19.2-50.176l-504.832-505.856-351.232-73.216 73.216 352.256q479.744 481.28 504.32 506.368 17.92 18.944 51.2 17.92t54.784-22.528zM585.216 687.616l-352.256-353.792 70.144-70.144 349.184 356.864zM397.824 168.448l352.256 353.792-67.584 67.584-352.768-352.768z"/>
            <glyph unicode="&#xa328;" glyph-name="uniA328"
                   d="M358.4 693.76q42.496 0 72.448-29.952t29.952-72.448q0-26.624-14.336-51.2-36.864 10.24-88.064 10.24-22.528 0-44.544-2.56t-32.768-5.12l-10.752-2.56q-14.336 24.576-14.336 51.2 0 42.496 29.952 72.448t72.448 29.952zM665.6 693.76q42.496 0 72.448-29.952t29.952-72.448q0-26.624-14.336-51.2-36.864 10.24-88.064 10.24-22.528 0-44.544-2.56t-32.768-5.12l-10.752-2.56q-14.336 24.576-14.336 51.2 0 42.496 29.952 72.448t72.448 29.952zM512-7.68q142.848 0 259.072 82.944t162.304 218.112l-67.584 23.552q-38.912-113.664-136.448-183.296t-217.344-69.632-217.344 69.632-136.448 183.296l-67.584-23.552q46.080-135.168 162.304-218.112t259.072-82.944z"/>
            <glyph unicode="&#xa329;" glyph-name="uniA329"
                   d="M768 601.6v102.4h-512v-102.4h512zM768 396.8v102.4h-512v-102.4h512zM768 192v102.4h-512v-102.4h512z"/>
            <glyph unicode="&#xa330;" glyph-name="uniA330"
                   d="M819.2 806.4h102.4v-819.2h-665.6q-63.488 0-108.544 45.056t-45.056 108.544v614.4q0 63.488 45.056 108.544t108.544 45.056h460.8v-716.8h-460.8q-20.992 0-36.096-15.104t-15.104-36.096 15.104-36.096 36.096-15.104h563.2v716.8z"/>
            <glyph unicode="&#xa331;" glyph-name="uniA331"
                   d="M256 89.6h665.6v-102.4h-665.6q-63.488 0-108.544 45.056t-45.056 108.544v614.4q0 63.488 45.056 108.544t108.544 45.056h665.6v-716.8h-665.6q-20.992 0-36.096-15.104t-15.104-36.096 15.104-36.096 36.096-15.104zM358.4 268.8v563.2q0 10.752-7.424 18.176t-18.176 7.424-18.176-7.424-7.424-18.176v-563.2q0-10.752 7.424-18.176t18.176-7.424 18.176 7.424 7.424 18.176z"/>
            <glyph unicode="&#xa332;" glyph-name="uniA332"
                   d="M512 857.6q6.144-4.096 17.664-11.008t49.152-24.576 77.056-31.232 98.304-24.576 116.224-11.008q0-114.688-19.712-216.576t-51.456-172.288-69.888-129.28-76.288-94.464-69.888-60.16-51.712-34.304l-19.456-9.728q-4.608 2.048-12.544 5.888t-32.512 19.712-48.128 35.072-55.808 52.992-60.16 72.448-56.064 94.72-48.128 118.272-32.512 144.64-12.544 173.056q57.344 0 115.456 10.496t99.84 25.6 75.264 30.208 50.432 25.856zM512 448h256q2.048 2.048 5.632 6.656t12.288 24.576 15.36 46.080 12.288 73.728 5.632 104.96q-10.24 2.048-27.904 5.888t-64.512 15.36-85.504 23.040-76.8 27.648-52.48 30.464v-358.4h-256q14.336-57.344 46.080-115.456t66.56-99.84 67.584-75.264 54.272-50.432l21.504-17.408v358.4z"/>
            <glyph unicode="&#xa333;" glyph-name="uniA333"
                   d="M870.4 601.6v102.4h-716.8v-102.4h716.8zM870.4 396.8v102.4h-716.8v-102.4h716.8zM870.4 192v102.4h-716.8v-102.4h716.8z"/>
            <glyph unicode="&#xa334;" glyph-name="uniA334"
                   d="M512 857.6q6.144-4.096 17.664-11.008t49.152-24.576 77.056-31.232 98.304-24.576 116.224-11.008q0-114.688-19.712-216.576t-51.456-172.288-69.888-129.28-76.288-94.464-69.888-60.16-51.712-34.304l-19.456-9.728q-4.608 2.048-12.544 5.888t-32.512 19.712-48.128 35.072-55.808 52.992-60.16 72.448-56.064 94.72-48.128 118.272-32.512 144.64-12.544 173.056q57.344 0 115.456 10.496t99.84 25.6 75.264 30.208 50.432 25.856z"/>
            <glyph unicode="&#xa335;" glyph-name="uniA335"
                   d="M765.44 629.248l-181.248-181.248 181.248-181.248-72.192-72.192-181.248 180.736-180.736-180.736-72.704 72.704 180.736 180.736-180.736 180.736 72.704 72.704 180.736-180.736 181.248 180.736z"/>
            <glyph unicode="&#xa336;" glyph-name="uniA336"
                   d="M921.6 140.8h-819.2v614.4h819.2v-614.4zM360.96 523.264q9.728 5.632 16.896 12.288 7.168 8.192 12.288 17.408 6.656 13.312 8.704 18.944 2.56 6.656 5.12 17.408l3.072 12.288q0 1.024 0.256 2.56t0.256 2.048q3.584 23.040-2.048 46.080-6.144 22.016-23.552 36.864-17.92 14.848-44.032 14.848-14.848 0-28.672-5.632-13.312-6.144-20.992-15.36-8.704-10.24-13.824-22.528t-6.144-26.112q-0.512-9.216 0.512-28.16l1.024-4.608q1.024-5.632 3.072-12.8 4.608-15.36 5.12-16.896 3.072-9.216 8.704-18.944 6.656-10.24 12.8-16.896 7.68-8.704 17.408-12.8 9.728-4.608 22.016-4.608t22.016 4.608zM870.4 499.2v204.8h-256v-204.8h256zM338.944 456.704l-70.656 45.056q-31.232 0-58.368-16.384-27.136-16.896-41.472-43.52-14.848-26.624-14.848-54.784v-64l10.24-2.56q13.312-4.096 28.16-7.168 20.992-5.12 40.96-8.704 17.408-3.584 51.2-7.168 28.16-3.072 54.784-3.072 25.6 0 54.784 3.072 24.576 2.56 50.176 7.168 27.648 5.12 41.984 8.704 8.192 1.536 17.408 4.096t10.24 2.56q6.656 2.048 10.752 3.072v64q0 28.16-15.872 54.784-16.384 27.136-43.008 44.032-27.136 16.896-56.832 16.896zM870.4 396.8v51.2h-256v-51.2h256zM870.4 294.4v51.2h-256v-51.2h256zM870.4 192v51.2h-716.8v-51.2h716.8z"/>
            <glyph unicode="&#xa337;" glyph-name="uniA337"
                   d="M921.6 38.4h-819.2v819.2h819.2v-819.2zM412.16 574.464q9.728 5.632 16.896 12.288 7.168 8.192 12.288 17.408 6.656 13.312 8.704 18.944 2.56 6.656 5.12 17.408l3.072 12.288q0 1.024 0.256 2.56t0.256 2.048q3.584 23.040-2.048 46.080-6.144 22.016-23.552 36.864-17.92 14.848-44.032 14.848-14.848 0-28.672-5.632-13.312-6.144-20.992-15.36-8.704-10.24-13.824-22.528t-6.144-26.112q-0.512-9.216 0.512-28.16l1.024-4.608q1.024-5.632 3.072-12.8 4.608-15.36 5.12-16.896 3.072-9.216 8.704-18.944 6.656-10.24 12.8-16.896 7.68-8.704 17.408-12.8 9.728-4.608 22.016-4.608t22.016 4.608zM819.2 704v51.2h-256v-51.2h256zM819.2 601.6v51.2h-256v-51.2h256zM390.144 507.904l-70.656 45.056q-31.232 0-58.368-16.384-27.136-16.896-41.472-43.52-14.848-26.624-14.848-54.784v-64l10.24-2.56q13.312-4.096 28.16-7.168 20.992-5.12 40.96-8.704 17.408-3.584 51.2-7.168 28.672-3.072 54.784-3.072 25.6 0 54.784 3.072 24.576 2.56 50.176 7.168 27.648 5.12 41.984 8.704 8.192 1.536 17.408 4.096t10.24 2.56q6.656 2.048 10.752 3.072v64q0 28.16-15.872 54.784-16.384 27.136-43.008 44.032-27.136 16.896-56.832 16.896zM819.2 499.2v51.2h-153.6v-51.2h153.6zM819.2 396.8v51.2h-153.6v-51.2h153.6zM819.2 243.2v51.2h-614.4v-51.2h614.4zM819.2 140.8v51.2h-614.4v-51.2h614.4z"/>
            <glyph unicode="&#xa338;" glyph-name="uniA338"
                   d="M373.76 652.8l-1.536 9.728q-3.072 28.16-1.536 55.296 1.536 28.672 12.8 53.248 11.264 25.6 26.624 44.032 16.896 19.968 42.496 30.72 26.624 11.776 57.856 11.776 52.736 0 87.552-30.208 35.328-30.72 46.592-73.728 11.264-43.52 4.608-91.136l-1.536-9.728q-0.512-5.12-5.632-24.576-3.584-16.896-10.24-35.328-6.656-17.408-17.408-36.864-9.216-17.92-24.064-35.328-12.8-13.312-34.304-24.576-19.968-9.728-44.032-9.728-23.552 0-44.544 9.728-21.504 10.752-34.304 25.6-12.8 14.336-25.088 33.792-11.264 18.432-17.408 37.376-7.168 19.968-10.752 34.304-4.608 16.896-6.144 25.6zM844.8 333.312q25.6-43.52 25.6-109.568v-127.488q0-2.048-14.848-6.656-3.584-1.024-18.944-5.376t-30.72-8.448q-56.32-12.288-84.48-17.408-43.52-7.68-99.84-13.824-57.344-6.144-109.056-6.144t-109.568 6.144q-46.080 4.096-101.376 13.824-22.528 4.096-79.872 17.408-22.016 5.12-54.272 14.848l-13.824 5.632v127.488q0 68.608 23.552 110.080 33.28 58.88 76.8 86.016 24.064 14.848 69.632 21.504t86.016 6.656l85.504-85.504-34.304-68.096v-153.6l52.224-55.296 50.176 55.296v153.6l-34.816 68.096 84.48 85.504q107.008 0 148.48-26.624 49.152-31.232 83.456-88.064z"/>
            <glyph unicode="&#xa339;" glyph-name="uniA339"
                   d="M512 908.8q78.336 0 144.64-38.656t104.96-104.704 38.656-144.384q0-26.624-10.752-60.416t-25.856-63.232-30.464-55.040-26.112-40.448l-10.752-15.36q-12.8-16.896-21.76-44.032t-8.96-48.128v-51.2q0-20.992-15.104-36.096t-36.096-15.104h-204.8q-20.992 0-36.096 15.104t-15.104 36.096v51.2q0 20.992-8.96 48.128t-21.76 44.032q-4.096 5.632-11.008 15.616t-24.832 39.424-31.488 56.576-24.832 61.696-11.264 61.184q0 78.336 38.4 144.384t104.704 104.704 144.64 38.656zM358.4 96.256v44.544h307.2v-44.544q0-27.136-8.192-42.496t-30.208-15.36h-12.8q0-23.552-14.080-37.376t-38.144-13.824h-102.4q-23.552 0-36.864 13.568t-13.312 37.632h-12.8q-22.016 0-30.208 15.36t-8.192 42.496z"/>
            <glyph unicode="&#xa340;" glyph-name="uniA340"
                   d="M921.6 499.2v-102.4h-614.4l204.8-204.8-51.2-102.4-358.4 358.4 358.4 358.4 51.2-102.4-204.8-204.8h614.4z"/>
            <glyph unicode="&#xa341;" glyph-name="uniA341"
                   d="M716.8 704l-256-256 256-256-51.2-102.4-358.4 358.4 358.4 358.4z"/>
            <glyph unicode="&#xa342;" glyph-name="uniA342"
                   d="M563.2 38.4h-102.4v614.4l-204.8-204.8-102.4 51.2 358.4 358.4 358.4-358.4-102.4-51.2-204.8 204.8v-614.4z"/>
            <glyph unicode="&#xa343;" glyph-name="uniA343"
                   d="M768 243.2l-256 256-256-256-102.4 51.2 358.4 358.4 358.4-358.4z"/>
            <glyph unicode="&#xa344;" glyph-name="uniA344"
                   d="M102.4 396.8v102.4h614.4l-204.8 204.8 51.2 102.4 358.4-358.4-358.4-358.4-51.2 102.4 204.8 204.8h-614.4z"/>
            <glyph unicode="&#xa345;" glyph-name="uniA345"
                   d="M307.2 192l256 256-256 256 51.2 102.4 358.4-358.4-358.4-358.4z"/>
            <glyph unicode="&#xa346;" glyph-name="uniA346"
                   d="M460.8 857.6h102.4v-614.4l204.8 204.8 102.4-51.2-358.4-358.4-358.4 358.4 102.4 51.2 204.8-204.8v614.4z"/>
            <glyph unicode="&#xa347;" glyph-name="uniA347"
                   d="M256 652.8l256-256 256 256 102.4-51.2-358.4-358.4-358.4 358.4z"/>
            <glyph unicode="&#xa348;" glyph-name="uniA348"
                   d="M512 857.6q83.456 0 159.232-32.512t130.56-87.296 87.296-130.56 32.512-159.232-32.512-159.232-87.296-130.56-130.56-87.296-159.232-32.512-159.232 32.512-130.56 87.296-87.296 130.56-32.512 159.232 32.512 159.232 87.296 130.56 130.56 87.296 159.232 32.512zM563.2 652.8q0 20.992-15.104 36.096t-36.096 15.104-36.096-15.104-15.104-36.096 15.104-36.096 36.096-15.104 36.096 15.104 15.104 36.096zM563.2 192v307.2h-102.4v-307.2h102.4z"/>
            <glyph unicode="&#xa349;" glyph-name="uniA349"
                   d="M1024 704v153.6h-1024v-153.6h1024zM1024 396.8v153.6h-1024v-153.6h1024zM1024 89.6v153.6h-1024v-153.6h1024z"/>
            <glyph unicode="&#xa448;" glyph-name="uniA448"
                   d="M512 960q83.456 0 161.536-25.856t141.056-73.216 110.336-110.336 73.216-141.056 25.856-161.536-25.856-161.536-73.216-141.056-110.336-110.336-141.056-73.216-161.536-25.856-161.536 25.856-141.056 73.216-110.336 110.336-73.216 141.056-25.856 161.536 25.856 161.536 73.216 141.056 110.336 110.336 141.056 73.216 161.536 25.856zM512 934.4q-98.816 0-188.928-38.4t-155.392-103.68-103.68-155.392-38.4-188.928 38.4-188.928 103.68-155.392 155.392-103.68 188.928-38.4 188.928 38.4 155.392 103.68 103.68 155.392 38.4 188.928-38.4 188.928-103.68 155.392-155.392 103.68-188.928 38.4zM512 883.2q88.576 0 169.216-34.304t139.008-92.672 92.672-139.008 34.304-169.216-34.304-169.216-92.672-139.008-139.008-92.672-169.216-34.304-169.216 34.304-139.008 92.672-92.672 139.008-34.304 169.216 34.304 169.216 92.672 139.008 139.008 92.672 169.216 34.304zM604.16 795.648q-42.496 0-79.36-23.040 60.416-14.336 100.096-63.488t39.68-113.152q0-51.2-28.16-95.744 50.688 11.264 83.968 51.968t33.28 93.952q0 61.952-43.776 105.728t-105.728 43.776zM482.304 744.448q-61.952 0-105.728-44.032t-43.776-105.984 43.776-105.728 105.728-43.776 105.984 43.776 44.032 105.728q0 62.464-43.776 106.24t-106.24 43.776zM699.904 487.936l-26.112-30.208q33.792-9.728 58.88-32.512t37.12-48.128 19.456-49.152 8.448-39.68l1.536-15.36h65.536q0 38.912-5.632 70.912t-15.104 53.504-22.016 38.4-26.112 26.112-27.136 15.616-26.112 8.448-22.016 2.816-15.104 0.256zM592.384 446.976l-108.544-107.008-108.544 107.008q-34.816-2.048-62.976-11.776t-46.336-24.832-32-34.304-20.992-39.936-11.264-41.472-4.864-39.168-0.256-32.512 1.536-22.784l1.024-8.192h567.296q5.12 52.224-2.048 94.208t-22.016 67.84-34.304 45.056-39.68 27.904-37.376 13.824-27.904 5.632z"/>
            <glyph unicode="&#xa449;" glyph-name="uniA449"
                   d="M691.2 601.6h-358.4q-31.744 0-54.272 22.528t-22.528 54.272 22.528 54.272 54.272 22.528h81.408q-4.608 14.848-4.608 25.6 0 31.744 22.528 54.272t54.272 22.528h51.2q31.744 0 54.272-22.528t22.528-54.272q0-10.752-4.608-25.6h81.408q31.744 0 54.272-22.528t22.528-54.272-22.528-54.272-54.272-22.528zM204.8 550.4h614.4q20.992 0 36.096-15.104t15.104-36.096-15.104-36.096-36.096-15.104h-614.4q-20.992 0-36.096 15.104t-15.104 36.096 15.104 36.096 36.096 15.104zM256 396.8h512q20.992 0 36.096-15.104t15.104-36.096-15.104-36.096-36.096-15.104h-512q-20.992 0-36.096 15.104t-15.104 36.096 15.104 36.096 36.096 15.104zM358.4 243.2h307.2q20.992 0 36.096-15.104t15.104-36.096-15.104-36.096-36.096-15.104h-55.808q4.608-14.848 4.608-25.6 0-31.744-22.528-54.272t-54.272-22.528h-51.2q-31.744 0-54.272 22.528t-22.528 54.272q0 10.752 4.608 25.6h-55.808q-20.992 0-36.096 15.104t-15.104 36.096 15.104 36.096 36.096 15.104z"/>
            <glyph unicode="&#xa450;" glyph-name="uniA450"
                   d="M534.528 875.008q-22.528 22.528-54.272 22.528t-54.272-22.528l-289.792-289.792q-22.528-22.528-22.528-54.272t22.528-54.272q23.552-22.528 55.040-22.272t53.504 22.272l289.792 289.792q22.528 22.528 22.528 54.272t-22.528 54.272zM679.424 730.112q-22.528 22.528-54.528 22.528t-54.016-22.528l-289.792-289.792q-22.528-22.016-22.528-54.016t22.528-54.528q23.552-22.528 55.040-22.016t53.504 22.016l289.792 289.792q22.016 22.016 22.016 54.016t-22.016 54.528zM733.696 386.048l214.016-214.016q22.528-22.528 22.528-54.272t-22.528-54.272-54.528-22.528-54.016 22.528l-214.016 214.016-90.624-90.624q-22.528-22.528-54.272-22.528t-54.272 22.528-22.528 54.528 22.528 54.528l289.792 289.28q22.528 22.528 54.272 22.528t54.272-22.528 22.528-54.272-22.528-54.272zM256 192q0 23.040-8.704 52.48t-21.248 55.040-25.088 48.128-21.248 35.84l-8.704 13.312q-7.68-15.872-18.944-41.216t-30.464-80.64-19.2-82.944q0-46.080 19.712-74.24t48.896-28.16h16.384q31.744 0 50.176 22.784t18.432 79.616z"/>
            <glyph unicode="&#xa451;" glyph-name="uniA451"
                   d="M898.048 433.152q45.056-45.056 45.056-108.8t-45.056-108.8-108.8-45.056-108.8 45.056l-17.408 26.624q0-33.792-4.864-63.488t-11.52-50.944-18.688-40.704-21.76-30.976-25.344-24.064-24.576-18.176-24.32-14.592-19.968-12.032q-5.632 4.096-25.344 16.384t-33.024 21.504-32.512 29.952-30.976 43.776-20.48 60.672-8.704 82.688l-17.408-26.624q-45.056-45.056-108.8-45.056t-108.8 45.056-45.056 108.8 45.056 108.8q52.224 34.304 107.52 66.56-69.632 94.208-69.632 210.432 0 24.064 4.096 51.2 9.216-67.072 43.008-125.696t86.016-100.608q27.136 14.336 64.768 29.184t56.576 17.92h-8.704q-41.984 0-72.192 30.208t-30.208 72.192 30.208 72.192 72.192 30.208v25.6q0 10.752 7.424 18.176t18.176 7.424 18.176-7.424 7.424-18.176v-25.6h102.4v25.6q0 10.752 7.424 18.176t18.176 7.424 18.176-7.424 7.424-18.176v-25.6q41.984 0 72.192-30.208t30.208-72.192-30.208-72.192-72.192-30.208h-8.704q18.432-3.072 57.6-18.688t64.256-28.416q52.224 41.984 86.016 100.608t43.008 125.696q4.096-27.136 4.096-51.2 0-116.224-69.632-210.432 24.576-14.336 51.2-30.976t41.472-25.856zM435.2 633.344q19.456 0 35.328 15.36t15.872 35.84q0 20.992-15.104 36.096t-36.096 15.104-36.096-15.104-15.104-36.096 15.104-36.096 36.096-15.104zM588.8 735.744q-20.992 0-36.096-15.104t-15.104-36.096 15.104-36.096 36.096-15.104 36.096 15.104 15.104 36.096-15.104 36.096-36.096 15.104zM471.040 442.368q-9.728-8.704-9.728-22.016 1.024-9.728 8.192-16.64t16.896-6.912h51.2q9.728 0 16.896 6.912t8.192 16.64q0 10.752-9.728 22.016-7.68 5.632-15.36 5.632h-51.2q-7.68 0-15.36-5.632zM614.4 320q0 11.776-9.728 19.456-7.68 6.144-15.872 6.144h-153.6q-8.192 0-15.872-6.144-9.728-8.704-9.728-19.456t7.424-18.176 18.176-7.424h153.6q10.752 0 18.176 7.424t7.424 18.176zM435.2 192h153.6q10.752 0 18.176 7.424t7.424 18.176-7.424 18.176-18.176 7.424h-153.6q-10.752 0-18.176-7.424t-7.424-18.176 7.424-18.176 18.176-7.424zM486.4 89.6h51.2q10.752 0 18.176 7.424t7.424 18.176-7.424 18.176-18.176 7.424h-51.2q-10.752 0-18.176-7.424t-7.424-18.176 7.424-18.176 18.176-7.424z"/>
            <glyph unicode="&#xa452;" glyph-name="uniA452"
                   d="M409.6 908.8v-358.4h102.4v102.4q0 58.88 47.104 106.24t106.496 47.36v-44.032q46.592 44.032 102.4 44.032v-153.6h51.2q41.984 0 72.192-30.208t30.208-72.192-30.208-72.192-72.192-30.208h-51.2v-307.2q0-20.992-15.104-36.096t-36.096-15.104-36.096 15.104-15.104 36.096v111.616q-26.112-9.216-51.2-9.216v-102.4q0-20.992-15.104-36.096t-36.096-15.104-36.096 15.104-15.104 36.096v102.4h-102.4v-102.4q0-20.992-15.104-36.096t-36.096-15.104-36.096 15.104-15.104 36.096v102.4q-25.088 0-51.2 9.216v-111.616q0-20.992-15.104-36.096t-36.096-15.104-36.096 15.104-15.104 36.096v204.8h-51.2v51.2q0 63.488 45.056 108.544t108.544 45.056h102.4v358.4h51.2zM665.6 550.4q20.992 0 36.096 15.104t15.104 36.096-15.104 36.096-36.096 15.104-36.096-15.104-15.104-36.096 15.104-36.096 36.096-15.104z"/>
            <glyph unicode="&#xa453;" glyph-name="uniA453"
                   d="M460.8 806.4q0 47.104-51.2 102.4-20.48-20.48-35.84-50.176t-15.36-52.224q0-18.944 15.36-35.072t35.84-16.128q20.992 0 36.096 15.36t15.104 35.84zM665.6 806.4q0 47.104-51.2 102.4-20.48-20.48-35.84-50.176t-15.36-52.224q0-18.944 15.36-35.072t35.84-16.128q20.992 0 36.096 15.36t15.104 35.84zM460.8 499.2v179.2q0 20.992-15.104 36.096t-36.096 15.104q-21.504 0-36.352-15.616t-14.848-35.584v-179.2q0-20.992 15.104-36.096t36.096-15.104q21.504 0 36.352 15.616t14.848 35.584zM665.6 499.2v179.2q0 20.992-15.104 36.096t-36.096 15.104q-21.504 0-36.352-15.616t-14.848-35.584v-179.2q0-20.992 15.104-36.096t36.096-15.104q21.504 0 36.352 15.616t14.848 35.584zM870.4 448q0 55.808-48.64 102.912t-130.56 74.24v-125.952q0-31.744-22.528-54.272t-54.272-22.528-54.272 22.528-22.528 54.272v153.088q-4.096 0-12.8 0.256t-12.8 0.256-12.8-0.256-12.8-0.256v-153.088q0-31.744-22.528-54.272t-54.272-22.528-54.272 22.528-22.528 54.272v125.952q-81.92-27.136-130.56-74.24t-48.64-102.912q0-56.32 40.192-101.12t124.16-71.424q16.384-5.12 55.552-21.504t72.96-26.112 65.536-9.728 65.536 9.728 72.96 26.368 55.552 21.76q83.456 26.112 123.904 70.912t40.448 101.12zM512 169.984q32.256 0 67.328 9.984t73.728 25.856 57.6 20.992q34.816 9.728 60.672 22.272t44.288 29.44 29.184 30.464 25.6 36.608v-153.6q0-55.808-47.872-102.912t-130.56-74.496-179.968-27.392-179.968 27.392-130.56 74.496-47.872 102.912v153.6q18.944-29.696 35.84-48.384t48.896-38.4 76.544-32.512q17.92-5.12 57.088-20.992t73.472-25.6 66.56-9.728z"/>
            <glyph unicode="&#xa454;" glyph-name="uniA454"
                   d="M448 664.576q0 19.968-9.216 47.104t-22.272 51.712-26.368 46.336-22.528 34.56l-9.216 13.312q-3.584-5.12-9.728-13.824t-21.504-33.536-27.136-47.616-21.504-50.432-9.728-47.616q0-50.176 22.016-69.376t67.584-19.2 67.584 19.2 22.016 69.376zM755.2 664.576q0 19.968-9.216 47.104t-22.272 51.712-26.368 46.336-22.528 34.56l-9.216 13.312q-3.584-5.12-9.728-13.824t-21.504-33.536-27.136-47.616-21.504-50.432-9.728-47.616q0-50.176 22.016-69.376t67.584-19.2 67.584 19.2 22.016 69.376zM460.8 89.6v409.6q0 20.992-15.104 36.096t-36.096 15.104h-102.4q-20.992 0-36.096-15.104t-15.104-36.096v-409.6q0-20.992 15.104-36.096t36.096-15.104h102.4q20.992 0 36.096 15.104t15.104 36.096zM768 89.6v409.6q0 20.992-15.104 36.096t-36.096 15.104h-102.4q-20.992 0-36.096-15.104t-15.104-36.096v-409.6q0-20.992 15.104-36.096t36.096-15.104h102.4q20.992 0 36.096 15.104t15.104 36.096zM307.2 396.8l102.4 51.2v-102.4l-102.4-51.2v102.4zM614.4 396.8l102.4 51.2v-102.4l-102.4-51.2v102.4zM307.2 243.2l102.4 51.2v-102.4l-102.4-51.2v102.4zM614.4 243.2l102.4 51.2v-102.4l-102.4-51.2v102.4z"/>
            </font>
</defs>
</svg>
