<?xml version="1.0" standalone="no"?>
<!DOCTYPE svg PUBLIC "-//W3C//DTD SVG 1.1//EN" "http://www.w3.org/Graphics/SVG/1.1/DTD/svg11.dtd" >
<svg xmlns="http://www.w3.org/2000/svg">
<metadata>Generated by IcoMoon</metadata>
<defs>
<font id="actualityextensions" horiz-adv-x="1024">
    <font-face units-per-em="1024" ascent="960" descent="-64"/>
<missing-glyph horiz-adv-x="1024" />
<glyph unicode="&#x20;" horiz-adv-x="0" d="" />
<glyph unicode="&#xe900;" glyph-name="address-book4" horiz-adv-x="896" d="M872 704c13.254 0 24 10.746 24 24v80c0 13.254-10.746 24-24 24h-40v96c0 53.020-42.98 96-96 96h-640c-53.020 0-96-42.98-96-96v-832c0-53.020 42.98-96 96-96h640c53.020 0 96 42.98 96 96v96h40c13.254 0 24 10.746 24 24v80c0 13.254-10.746 24-24 24h-40v128h40c13.254 0 24 10.746 24 24v80c0 13.254-10.746 24-24 24h-40v128h40zM416 768c88.366 0 160-71.634 160-160s-71.634-160-160-160-160 71.634-160 160 71.634 160 160 160zM672 304c0-26.51-21.49-48-48-48h-416c-26.51 0-48 21.49-48 48v37.046c0 44.052 29.98 82.45 72.716 93.134l71.314 17.828c58.202-41.864 149.018-53.89 223.94 0l71.314-17.828c42.736-10.684 72.716-49.084 72.716-93.134v-37.046z" />
<glyph unicode="&#xe901;" glyph-name="address-card" d="M928 896h-832c-53.020 0-96-42.98-96-96v-576c0-53.020 42.98-96 96-96h832c53.020 0 96 42.98 96 96v576c0 53.020-42.98 96-96 96zM352 736c77.32 0 140-62.68 140-140s-62.68-140-140-140-140 62.68-140 140 62.68 140 140 140zM576 330c0-23.196-18.804-42-42-42h-364c-23.196 0-42 18.804-42 42v32.414c0 38.544 26.232 72.144 63.626 81.492l62.4 15.6c50.928-36.632 130.39-47.154 195.948 0l62.4-15.6c37.394-9.348 63.626-42.946 63.626-81.492v-32.414zM896 408c0-13.254-10.746-24-24-24h-208c-13.254 0-24 10.746-24 24v16c0 13.254 10.746 24 24 24h208c13.254 0 24-10.746 24-24v-16zM896 536c0-13.254-10.746-24-24-24h-208c-13.254 0-24 10.746-24 24v16c0 13.254 10.746 24 24 24h208c13.254 0 24-10.746 24-24v-16zM896 664c0-13.254-10.746-24-24-24h-208c-13.254 0-24 10.746-24 24v16c0 13.254 10.746 24 24 24h208c13.254 0 24-10.746 24-24v-16z" />
<glyph unicode="&#xe902;" glyph-name="adjust" d="M16 512c0-273.932 222.066-496 496-496s496 222.068 496 496-222.068 496-496 496-496-222.066-496-496zM512 144v736c203.41 0 368-164.622 368-368 0-203.41-164.622-368-368-368z" />
<glyph unicode="&#xe903;" glyph-name="align-center" horiz-adv-x="896" d="M704 936v-80c0-17.674-14.326-32-32-32h-448c-17.674 0-32 14.326-32 32v80c0 17.674 14.326 32 32 32h448c17.674 0 32-14.326 32-32zM32 568h832c17.674 0 32 14.326 32 32v80c0 17.674-14.326 32-32 32h-832c-17.674 0-32-14.326-32-32v-80c0-17.674 14.326-32 32-32zM32 56h832c17.674 0 32 14.326 32 32v80c0 17.674-14.326 32-32 32h-832c-17.674 0-32-14.326-32-32v-80c0-17.674 14.326-32 32-32zM672 456h-448c-17.674 0-32-14.326-32-32v-80c0-17.674 14.326-32 32-32h448c17.674 0 32 14.326 32 32v80c0 17.674-14.326 32-32 32z" />
<glyph unicode="&#xe904;" glyph-name="align-justify" horiz-adv-x="896" d="M0 856v80c0 17.674 14.326 32 32 32h832c17.674 0 32-14.326 32-32v-80c0-17.674-14.326-32-32-32h-832c-17.674 0-32 14.326-32 32zM32 568h832c17.674 0 32 14.326 32 32v80c0 17.674-14.326 32-32 32h-832c-17.674 0-32-14.326-32-32v-80c0-17.674 14.326-32 32-32zM32 56h832c17.674 0 32 14.326 32 32v80c0 17.674-14.326 32-32 32h-832c-17.674 0-32-14.326-32-32v-80c0-17.674 14.326-32 32-32zM32 312h832c17.674 0 32 14.326 32 32v80c0 17.674-14.326 32-32 32h-832c-17.674 0-32-14.326-32-32v-80c0-17.674 14.326-32 32-32z" />
<glyph unicode="&#xe905;" glyph-name="align-left2" horiz-adv-x="896" d="M576 936v-80c0-17.674-14.326-32-32-32h-512c-17.674 0-32 14.326-32 32v80c0 17.674 14.326 32 32 32h512c17.674 0 32-14.326 32-32zM0 680v-80c0-17.674 14.326-32 32-32h832c17.674 0 32 14.326 32 32v80c0 17.674-14.326 32-32 32h-832c-17.674 0-32-14.326-32-32zM32 56h832c17.674 0 32 14.326 32 32v80c0 17.674-14.326 32-32 32h-832c-17.674 0-32-14.326-32-32v-80c0-17.674 14.326-32 32-32zM544 456h-512c-17.674 0-32-14.326-32-32v-80c0-17.674 14.326-32 32-32h512c17.674 0 32 14.326 32 32v80c0 17.674-14.326 32-32 32z" />
<glyph unicode="&#xe906;" glyph-name="align-right2" horiz-adv-x="896" d="M320 856v80c0 17.674 14.326 32 32 32h512c17.674 0 32-14.326 32-32v-80c0-17.674-14.326-32-32-32h-512c-17.674 0-32 14.326-32 32zM32 568h832c17.674 0 32 14.326 32 32v80c0 17.674-14.326 32-32 32h-832c-17.674 0-32-14.326-32-32v-80c0-17.674 14.326-32 32-32zM32 56h832c17.674 0 32 14.326 32 32v80c0 17.674-14.326 32-32 32h-832c-17.674 0-32-14.326-32-32v-80c0-17.674 14.326-32 32-32zM352 312h512c17.674 0 32 14.326 32 32v80c0 17.674-14.326 32-32 32h-512c-17.674 0-32-14.326-32-32v-80c0-17.674 14.326-32 32-32z" />
<glyph unicode="&#xe907;" glyph-name="ambulance2" horiz-adv-x="1280" d="M1184 1024h-640c-53.020 0-96-42.98-96-96v-96h-88.236c-26.51 0-50.509-10.745-67.882-28.118l-199.764-199.764c-17.373-17.373-28.118-41.372-28.118-67.882v0-216.236h-16c-26.51 0-48-21.49-48-48v-32c0-26.51 21.49-48 48-48h80c0-106.038 85.962-192 192-192s192 85.962 192 192h256c0-106.038 85.962-192 192-192s192 85.962 192 192h80c26.51 0 48 21.49 48 48v688c0 53.020-42.98 96-96 96zM320 96c-52.934 0-96 43.066-96 96s43.066 96 96 96 96-43.066 96-96-43.066-96-96-96zM448 512h-288v24.236l199.764 199.764h88.236v-224zM960 96c-52.934 0-96 43.066-96 96s43.066 96 96 96 96-43.066 96-96-43.066-96-96-96zM1024 672v-64c0-13.254-10.746-24-24-24h-112v-112c0-13.254-10.746-24-24-24h-64c-13.254 0-24 10.746-24 24v112h-112c-13.254 0-24 10.746-24 24v64c0 13.254 10.746 24 24 24h112v112c0 13.254 10.746 24 24 24h64c13.254 0 24-10.746 24-24v-112h112c13.254 0 24-10.746 24-24z" />
<glyph unicode="&#xe908;" glyph-name="american-sign-language-interpreting" horiz-adv-x="1280" d="M581.094 645.922c-40.59 20.298-88.294 22.398-129.478 7.78 85.212 0 142.416-40.95 171.156-101.152 17.152-35.798-10.296-76.142-47.234-76.142 36.858 0 64.422-40.272 47.234-76.142-29.45-61.692-92.246-101.708-160.596-101.708-1.114 0-188.942 17.23-188.942 17.23l-132.812-66.694c-18.768-9.386-39.63-0.758-47.79 15.562l-88.912 177.85c-8.334 17.23-2.222 37.794 13.892 47.242l116.144 66.138 82.244 148.392c12.78 114.49 69.462 219.534 159.486 293.452 22.782 18.896 56.682 15.562 75.020-7.226 18.892-22.788 15.56-56.134-7.224-75.032-25.006-21.118-47.236-45.018-65.018-71.14 43.344 29.458 93.358 49.464 148.372 56.134 29.45 3.89 56.126-16.672 59.46-46.13 3.89-29.456-16.672-56.134-46.124-59.468-32.232-3.89-62.24-15.006-88.356-30.568 52.228 11.426 117.424 6.276 176.158-22.23 26.672-13.338 37.786-45.018 24.448-71.696-12.778-26.12-45.008-37.234-71.128-24.452zM526.636 506.978c-12.224 25.010-36.676 40.572-64.462 40.572-0.062 0-0.136 0-0.21 0-39.168 0-70.92-31.752-70.92-70.92 0-0.077 0-0.155 0-0.232v0.012c0-42.856 35.616-71.14 71.13-71.14 27.786 0 52.238 15.562 64.462 40.572 8.892 18.898 27.228 30.012 46.678 30.568-19.45 0.554-37.786 11.67-46.678 30.568zM1276.278 581.452c8.336-17.23 2.222-37.794-13.892-47.242l-116.142-66.138-82.244-148.392c-12.78-114.49-69.462-219.534-159.486-293.452-21.864-18.224-55.598-16.288-75.020 7.226-18.892 22.788-15.56 56.134 7.226 75.032 25.006 21.118 47.234 45.018 65.016 71.14-43.344-29.458-93.358-49.464-148.372-56.134-20.042-5.012-55.104 11.286-59.46 46.13-3.89 29.456 16.672 56.134 46.124 59.468 32.232 3.892 62.24 15.006 88.356 30.568-52.228-11.426-117.424-6.276-176.158 22.23-26.672 13.338-37.786 45.018-24.448 71.696 12.778 26.122 45.010 37.238 71.13 24.454 40.59-20.298 88.294-22.398 129.478-7.78-85.212 0-142.416 40.95-171.156 101.152-17.152 35.798 10.296 76.142 47.234 76.142-36.858 0-64.422 40.272-47.234 76.142 28.066 58.792 88.078 101.774 163.932 101.708l185.606-17.23 132.812 66.694c18.816 9.408 39.656 0.708 47.788-15.562l88.91-177.852zM817.824 618.688c-27.786 0-52.238-15.562-64.462-40.572-8.892-18.898-27.228-30.012-46.678-30.568 19.45-0.556 37.786-11.672 46.678-30.568 12.224-25.010 36.676-40.572 64.462-40.572 0.062 0 0.136 0 0.21 0 39.168 0 70.92 31.752 70.92 70.92 0 0.077 0 0.155 0 0.232v-0.012c0 42.858-35.616 71.14-71.13 71.14z" />
<glyph unicode="&#xe909;" glyph-name="anchor2" horiz-adv-x="1152" d="M25.942 320h64.788c43.614-205.47 273.158-320 485.27-320 212.458 0 441.706 114.76 485.27 320h64.788c21.382 0 32.090 25.852 16.97 40.97l-134.058 134.058c-9.372 9.372-24.568 9.372-33.942 0l-134.058-134.058c-15.12-15.12-4.412-40.97 16.97-40.97h70.292c-40.58-108.634-169.926-173.176-288.234-188.030v380.030h104c13.254 0 24 10.746 24 24v80c0 13.254-10.746 24-24 24h-104v10.94c74.562 26.356 127.99 97.45 128 181.036 0.012 104.48-84.788 190.548-189.258 192.004-107.294 1.498-194.74-85.030-194.74-191.98 0-83.596 53.432-154.7 128-181.060v-10.94h-104c-13.254 0-24-10.746-24-24v-80c0-13.254 10.746-24 24-24h104v-380.030c-117.872 14.798-247.64 79.358-288.234 188.030h70.292c21.382 0 32.090 25.852 16.97 40.97l-134.058 134.058c-9.372 9.372-24.568 9.372-33.942 0l-134.058-134.058c-15.118-15.118-4.41-40.97 16.972-40.97zM576 896c35.29 0 64-28.71 64-64s-28.71-64-64-64-64 28.71-64 64 28.71 64 64 64z" />
<glyph unicode="&#xe90a;" glyph-name="angle-double-down" horiz-adv-x="640" d="M286 511.4l-272 272c-18.8 18.8-18.8 49.2 0 67.8l45.2 45.2c18.8 18.8 49.2 18.8 67.8 0l192.8-192.8 192.8 192.8c18.8 18.8 49.2 18.8 67.8 0l45.6-45c18.8-18.8 18.8-49.2 0-67.8l-272-272c-18.8-19-49.2-19-68-0.2zM354 127.4l272 272c18.8 18.8 18.8 49.2 0 67.8l-45.2 45.2c-18.8 18.8-49.2 18.8-67.8 0l-193-192.6-192.8 192.8c-18.8 18.8-49.2 18.8-67.8 0l-45.4-45.2c-18.8-18.8-18.8-49.2 0-67.8l272-272c18.8-19 49.2-19 68-0.2z" />
<glyph unicode="&#xe90b;" glyph-name="angle-double-left" horiz-adv-x="896" d="M447.4 546l272 272c18.8 18.8 49.2 18.8 67.8 0l45.2-45.2c18.8-18.8 18.8-49.2 0-67.8l-192.6-193 192.8-192.8c18.8-18.8 18.8-49.2 0-67.8l-45.2-45.4c-18.8-18.8-49.2-18.8-67.8 0l-272 272c-19 18.8-19 49.2-0.2 68zM63.4 478l272-272c18.8-18.8 49.2-18.8 67.8 0l45.2 45.2c18.8 18.8 18.8 49.2 0 67.8l-192.6 193 192.8 192.8c18.8 18.8 18.8 49.2 0 67.8l-45.2 45.4c-18.8 18.8-49.2 18.8-67.8 0l-272-272c-19-18.8-19-49.2-0.2-68z" />
<glyph unicode="&#xe90c;" glyph-name="angle-double-right" horiz-adv-x="896" d="M448.6 478l-272-272c-18.8-18.8-49.2-18.8-67.8 0l-45.2 45.2c-18.8 18.8-18.8 49.2 0 67.8l192.8 192.8-192.8 192.8c-18.8 18.8-18.8 49.2 0 67.8l45 45.6c18.8 18.8 49.2 18.8 67.8 0l272-272c19-18.8 19-49.2 0.2-68zM832.6 546l-272 272c-18.8 18.8-49.2 18.8-67.8 0l-45.2-45.2c-18.8-18.8-18.8-49.2 0-67.8l192.8-192.8-192.8-192.8c-18.8-18.8-18.8-49.2 0-67.8l45.2-45.2c18.8-18.8 49.2-18.8 67.8 0l272 272c18.8 18.4 18.8 48.8 0 67.6z" />
<glyph unicode="&#xe90d;" glyph-name="angle-double-up" horiz-adv-x="640" d="M354 512.6l272-272c18.8-18.8 18.8-49.2 0-67.8l-45.2-45.2c-18.8-18.8-49.2-18.8-67.8 0l-193 192.6-192.8-192.8c-18.8-18.8-49.2-18.8-67.8 0l-45.4 45.2c-18.8 18.8-18.8 49.2 0 67.8l272 272c18.8 19 49.2 19 68 0.2zM286 896.6l-272-272c-18.8-18.8-18.8-49.2 0-67.8l45.2-45.2c18.8-18.8 49.2-18.8 67.8 0l192.8 192.8 192.8-192.8c18.8-18.8 49.2-18.8 67.8 0l45.2 45.2c18.8 18.8 18.8 49.2 0 67.8l-272 272c-18.4 18.8-48.8 18.8-67.6 0z" />
<glyph unicode="&#xe90e;" glyph-name="angle-down" horiz-adv-x="640" d="M286 319.4l-272 272c-18.8 18.8-18.8 49.2 0 67.8l45.2 45.2c18.8 18.8 49.2 18.8 67.8 0l192.8-192.8 192.8 192.8c18.8 18.8 49.2 18.8 67.8 0l45.2-45.2c18.8-18.8 18.8-49.2 0-67.8l-272-272c-18.4-18.8-48.8-18.8-67.6 0z" />
<glyph unicode="&#xe90f;" glyph-name="angle-left" horiz-adv-x="512" d="M63.4 546l272 272c18.8 18.8 49.2 18.8 67.8 0l45.2-45.2c18.8-18.8 18.8-49.2 0-67.8l-192.6-193 192.8-192.8c18.8-18.8 18.8-49.2 0-67.8l-45.2-45.4c-18.8-18.8-49.2-18.8-67.8 0l-272 272c-19 18.8-19 49.2-0.2 68z" />
<glyph unicode="&#xe910;" glyph-name="angle-right" horiz-adv-x="512" d="M448.6 478l-272-272c-18.8-18.8-49.2-18.8-67.8 0l-45.2 45.2c-18.8 18.8-18.8 49.2 0 67.8l192.8 192.8-192.8 192.8c-18.8 18.8-18.8 49.2 0 67.8l45 45.6c18.8 18.8 49.2 18.8 67.8 0l272-272c19-18.8 19-49.2 0.2-68z" />
<glyph unicode="&#xe911;" glyph-name="angle-up" horiz-adv-x="640" d="M354 704.6l272-272c18.8-18.8 18.8-49.2 0-67.8l-45.2-45.2c-18.8-18.8-49.2-18.8-67.8 0l-193 192.6-192.8-192.8c-18.8-18.8-49.2-18.8-67.8 0l-45.4 45.2c-18.8 18.8-18.8 49.2 0 67.8l272 272c18.8 19 49.2 19 68 0.2z" />
<glyph unicode="&#xe912;" glyph-name="archive2" d="M976 768h-928c-26.51 0-48 21.49-48 48v96c0 26.51 21.49 48 48 48h928c26.51 0 48-21.49 48-48v-96c0-26.51-21.49-48-48-48zM960 112v544c0 26.51-21.49 48-48 48h-800c-26.51 0-48-21.49-48-48v-544c0-26.51 21.49-48 48-48h800c26.51 0 48 21.49 48 48zM616 512h-208c-13.254 0-24 10.746-24 24v16c0 13.254 10.746 24 24 24h208c13.254 0 24-10.746 24-24v-16c0-13.254-10.746-24-24-24z" />
<glyph unicode="&#xe913;" glyph-name="arrow-alt-circle-down" d="M1008 512c0-274-222-496-496-496s-496 222-496 496 222 496 496 496 496-222 496-496zM424 744v-232h-141.8c-21.4 0-32.2-26-17-41l229.8-228.6c9.4-9.4 24.4-9.4 33.8 0l229.8 228.6c15.2 15.2 4.4 41-17 41h-141.6v232c0 13.2-10.8 24-24 24h-128c-13.2 0-24-10.8-24-24z" />
<glyph unicode="&#xe914;" glyph-name="arrow-alt-circle-left" d="M512 16c-274 0-496 222-496 496s222 496 496 496 496-222 496-496-222-496-496-496zM744 600h-232v141.8c0 21.4-26 32.2-41 17l-228.6-229.8c-9.4-9.4-9.4-24.4 0-33.8l228.6-229.8c15.2-15.2 41-4.4 41 17v141.6h232c13.2 0 24 10.8 24 24v128c0 13.2-10.8 24-24 24z" />
<glyph unicode="&#xe915;" glyph-name="arrow-alt-circle-right" d="M512 1008c274 0 496-222 496-496s-222-496-496-496-496 222-496 496 222 496 496 496zM280 424h232v-141.8c0-21.4 26-32.2 41-17l228.6 229.8c9.4 9.4 9.4 24.4 0 33.8l-228.6 230c-15.2 15.2-41 4.4-41-17v-141.8h-232c-13.2 0-24-10.8-24-24v-128c0-13.2 10.8-24 24-24z" />
<glyph unicode="&#xe916;" glyph-name="arrow-alt-circle-up" d="M16 512c0 274 222 496 496 496s496-222 496-496-222-496-496-496-496 222-496 496zM600 280v232h141.8c21.4 0 32.2 26 17 41l-229.8 228.6c-9.4 9.4-24.4 9.4-33.8 0l-230-228.6c-15.2-15.2-4.4-41 17-41h141.8v-232c0-13.2 10.8-24 24-24h128c13.2 0 24 10.8 24 24z" />
<glyph unicode="&#xe917;" glyph-name="arrow-circle-down" d="M1008 512c0-274-222-496-496-496s-496 222-496 496 222 496 496 496 496-222 496-496zM720.8 569.8l-144.8-151v365.2c0 26.6-21.4 48-48 48h-32c-26.6 0-48-21.4-48-48v-365.2l-144.8 151c-18.6 19.4-49.6 19.8-68.6 0.8l-21.8-22c-18.8-18.8-18.8-49.2 0-67.8l265.2-265.4c18.8-18.8 49.2-18.8 67.8 0l265.4 265.4c18.8 18.8 18.8 49.2 0 67.8l-21.8 22c-19 19-50 18.6-68.6-0.8z" />
<glyph unicode="&#xe918;" glyph-name="arrow-circle-left" d="M512 16c-274 0-496 222-496 496s222 496 496 496 496-222 496-496-222-496-496-496zM569.8 303.2l-151 144.8h365.2c26.6 0 48 21.4 48 48v32c0 26.6-21.4 48-48 48h-365.2l151 144.8c19.4 18.6 19.8 49.6 0.8 68.6l-22 21.8c-18.8 18.8-49.2 18.8-67.8 0l-265.4-265.2c-18.8-18.8-18.8-49.2 0-67.8l265.4-265.4c18.8-18.8 49.2-18.8 67.8 0l22 21.8c19 19 18.6 50-0.8 68.6z" />
<glyph unicode="&#xe919;" glyph-name="arrow-circle-right" d="M512 1008c274 0 496-222 496-496s-222-496-496-496-496 222-496 496 222 496 496 496zM454.2 720.8l151-144.8h-365.2c-26.6 0-48-21.4-48-48v-32c0-26.6 21.4-48 48-48h365.2l-151-144.8c-19.4-18.6-19.8-49.6-0.8-68.6l22-21.8c18.8-18.8 49.2-18.8 67.8 0l265.4 265.2c18.8 18.8 18.8 49.2 0 67.8l-265.4 265.6c-18.8 18.8-49.2 18.8-67.8 0l-22-21.8c-19-19.2-18.6-50.2 0.8-68.8z" />
<glyph unicode="&#xe91a;" glyph-name="arrow-circle-up" d="M16 512c0 274 222 496 496 496s496-222 496-496-222-496-496-496-496 222-496 496zM303.2 454.2l144.8 151v-365.2c0-26.6 21.4-48 48-48h32c26.6 0 48 21.4 48 48v365.2l144.8-151c18.6-19.4 49.6-19.8 68.6-0.8l21.8 22c18.8 18.8 18.8 49.2 0 67.8l-265.2 265.4c-18.8 18.8-49.2 18.8-67.8 0l-265.6-265.4c-18.8-18.8-18.8-49.2 0-67.8l21.8-22c19.2-19 50.2-18.6 68.8 0.8z" />
<glyph unicode="&#xe91b;" glyph-name="arrow-down17" horiz-adv-x="896" d="M826.2 579l44.4-44.4c18.8-18.8 18.8-49.2 0-67.8l-388.6-388.8c-18.8-18.8-49.2-18.8-67.8 0l-388.8 388.8c-18.8 18.8-18.8 49.2 0 67.8l44.4 44.4c19 19 50 18.6 68.6-0.8l229.6-241v574.8c0 26.6 21.4 48 48 48h64c26.6 0 48-21.4 48-48v-574.8l229.6 241c18.6 19.6 49.6 20 68.6 0.8z" />
<glyph unicode="&#xe91c;" glyph-name="arrow-left17" horiz-adv-x="896" d="M515 133.8l-44.4-44.4c-18.8-18.8-49.2-18.8-67.8 0l-388.8 388.6c-18.8 18.8-18.8 49.2 0 67.8l388.8 388.8c18.8 18.8 49.2 18.8 67.8 0l44.4-44.4c19-19 18.6-50-0.8-68.6l-241-229.6h574.8c26.6 0 48-21.4 48-48v-64c0-26.6-21.4-48-48-48h-574.8l241-229.6c19.6-18.6 20-49.6 0.8-68.6z" />
<glyph unicode="&#xe91d;" glyph-name="arrow-right17" horiz-adv-x="896" d="M381 890.2l44.4 44.4c18.8 18.8 49.2 18.8 67.8 0l388.8-388.6c18.8-18.8 18.8-49.2 0-67.8l-388.8-388.8c-18.8-18.8-49.2-18.8-67.8 0l-44.4 44.4c-19 19-18.6 50 0.8 68.6l241 229.6h-574.8c-26.6 0-48 21.4-48 48v64c0 26.6 21.4 48 48 48h574.8l-241 229.6c-19.6 18.6-20 49.6-0.8 68.6z" />
<glyph unicode="&#xe91e;" glyph-name="arrow-up17" horiz-adv-x="896" d="M69.8 445l-44.4 44.4c-18.8 18.8-18.8 49.2 0 67.8l388.6 388.8c18.8 18.8 49.2 18.8 67.8 0l388.6-388.6c18.8-18.8 18.8-49.2 0-67.8l-44.4-44.4c-19-19-50-18.6-68.6 0.8l-229.4 240.8v-574.8c0-26.6-21.4-48-48-48h-64c-26.6 0-48 21.4-48 48v574.8l-229.6-241c-18.6-19.6-49.6-20-68.6-0.8z" />
<glyph unicode="&#xe91f;" glyph-name="arrows-alt-h" d="M755.882 684.118v-92.118h-487.764v92.118c0 42.764-51.702 64.18-81.942 33.942l-172.118-172.118c-18.746-18.746-18.746-49.136 0-67.882l172.118-172.118c30.238-30.238 81.942-8.822 81.942 33.942v92.116h487.764v-92.118c0-42.764 51.702-64.18 81.942-33.942l172.118 172.118c18.746 18.746 18.746 49.136 0 67.882l-172.118 172.118c-30.238 30.24-81.942 8.824-81.942-33.94z" />
<glyph unicode="&#xe920;" glyph-name="arrows-alt-v" horiz-adv-x="512" d="M428.118 268.118h-92.118v487.764h92.118c42.764 0 64.18 51.702 33.942 81.942l-172.118 172.118c-18.746 18.746-49.136 18.746-67.882 0l-172.118-172.118c-30.238-30.238-8.822-81.942 33.942-81.942h92.116v-487.764h-92.118c-42.764 0-64.18-51.702-33.942-81.942l172.118-172.118c18.746-18.746 49.136-18.746 67.882 0l172.118 172.118c30.24 30.238 8.824 81.942-33.94 81.942z" />
<glyph unicode="&#xe921;" glyph-name="arrows-alt" d="M704.402 172.45l-158.392-158.392c-18.746-18.746-49.136-18.746-67.882 0l-158.392 158.392c-30.238 30.238-8.822 81.942 33.942 81.94h102.324l-0.002 201.61h-201.608v-102.324c0-42.764-51.702-64.18-81.942-33.942l-158.392 158.392c-18.746 18.746-18.746 49.138 0 67.882l158.392 158.392c30.238 30.238 81.942 8.822 81.942-33.942v-102.458h201.608v201.608h-102.46c-42.764 0-64.18 51.702-33.942 81.942l158.392 158.392c18.746 18.746 49.136 18.746 67.882 0l158.392-158.392c30.238-30.238 8.822-81.942-33.942-81.942h-102.324v-201.608h201.608v102.324c0 42.764 51.702 64.18 81.94 33.942l158.392-158.392c18.746-18.746 18.746-49.138 0-67.882l-158.392-158.392c-30.238-30.238-81.942-8.822-81.94 33.942v102.458h-201.606v-201.608h102.46c42.764 0 64.18-51.702 33.942-81.942z" />
<glyph unicode="&#xe922;" glyph-name="assistive-listening-systems" d="M432 504c0-30.928-25.072-56-56-56s-56 25.072-56 56c0 88.224 71.776 160 160 160s160-71.776 160-160c0-30.928-25.072-56-56-56s-56 25.072-56 56c0 26.468-21.534 48-48 48s-48-21.532-48-48zM480 856c-194.094 0-352-157.906-352-352 0-30.928 25.072-56 56-56s56 25.072 56 56c0 132.336 107.664 240 240 240s240-107.664 240-240c0-150.328-142.018-140.622-143.994-287.244l-0.006-0.756c0-57.346-46.654-104-104-104-30.928 0-56-25.072-56-56s25.072-56 56-56c118.95 0 215.752 96.656 216 215.548 1.19 68.856 144 96.48 144 288.452 0 194.094-157.906 352-352 352zM320 384c-35.346 0-64-28.654-64-64s28.654-64 64-64 64 28.654 64 64-28.654 64-64 64zM64 128c-35.346 0-64-28.654-64-64s28.654-64 64-64 64 28.654 64 64-28.654 64-64 64zM1024 503.986c0 3.036-0.024 6.050-0.090 9.062-3.758 229.902-151.596 434.012-367.922 507.93-29.266 9.996-61.098-5.618-71.1-34.884-10-29.266 5.62-61.098 34.884-71.1 171.812-58.708 289.22-221.026 292.154-403.906l0.006-0.376c0.052-2.236 0.066-4.472 0.066-6.726 0-30.928 25.072-56 56-56s56.002 25.072 56.002 56zM305.942 145.942l-160 160-67.882-67.882 160-160 67.882 67.882z" />
<glyph unicode="&#xe923;" glyph-name="asterisk" d="M956.42 355.814l-284.42 156.186 284.42 156.186c23.59 12.954 31.922 42.768 18.464 66.074l-38.96 67.482c-13.456 23.306-43.44 30.998-66.454 17.046l-277.47-168.224 6.95 324.408c0.576 26.906-21.076 49.028-47.99 49.028h-77.92c-26.912 0-48.566-22.122-47.988-49.028l6.948-324.408-277.47 168.222c-23.012 13.952-52.998 6.26-66.454-17.046l-38.96-67.482c-13.456-23.306-5.124-53.12 18.466-66.074l284.418-156.184-284.42-156.186c-23.59-12.954-31.922-42.768-18.464-66.074l38.96-67.482c13.456-23.306 43.442-30.998 66.454-17.046l277.47 168.224-6.95-324.408c-0.576-26.906 21.078-49.028 47.99-49.028h77.922c26.912 0 48.566 22.122 47.99 49.028l-6.952 324.408 277.47-168.222c23.012-13.952 52.998-6.26 66.454 17.046l38.96 67.482c13.456 23.306 5.126 53.118-18.464 66.072z" />
<glyph unicode="&#xe924;" glyph-name="at" d="M512 1008c-274.118 0-496-221.838-496-496 0-274.118 221.838-496 496-496 96.308 0 190.684 28.28 270.816 80.446 24.010 15.63 29.25 48.576 11.104 70.744l-20.354 24.866c-15.342 18.742-42.358 23.334-62.746 10.258-58.98-37.828-128.192-58.314-198.82-58.314-202.916 0-368 165.084-368 368s165.084 368 368 368c200.278 0 368-115.238 368-320 0-77.572-42.186-159.484-116.34-167.386-34.698 0.908-33.82 25.714-26.952 60.048l46.866 242.22c5.732 29.618-16.958 57.118-47.124 57.118h-89.962c0 0 0 0-0.001 0-13.857 0-25.279-10.425-26.851-23.859l-0.012-0.127-0.020-0.184c-29.394 35.802-80.896 43.55-119.942 43.55-149.16 0-275.662-124.468-275.662-302.92 0-130.606 73.57-211.74 192-211.74 53.968 0 114.738 31.274 149.982 76.666 19.044-68.208 81.226-68.206 141.42-68.206 217.816 0 300.598 143.224 300.598 294.82 0 272.694-219.954 448-496 448zM468.64 399.14c-44.498 0-72.14 31.246-72.14 81.542 0 89.986 61.558 145.458 117.26 145.458 44.584 0 71.202-30.482 71.202-81.54 0-90.122-67.75-145.46-116.322-145.46z" />
<glyph unicode="&#xe925;" glyph-name="audio-description" d="M325.85 546.582l17.644-61.31h-51.212l18.082 61.304c2.554 8.842 5.302 19.988 7.744 30.49 2.44-10.502 5.188-21.646 7.742-30.484zM658.798 610.78h-29.046v-197.562h29.046c59.552 0 92.35 35.356 92.35 99.552 0 64.478-34.98 98.010-92.35 98.010zM1024 800v-576c0-53.020-42.98-96-96-96h-832c-53.020 0-96 42.98-96 96v576c0 53.020 42.98 96 96 96h832c53.020 0 96-42.98 96-96zM490.918 351.722l-114.194 336c-3.315 9.547-12.233 16.277-22.724 16.278h-71.788c-10.491-0.001-19.409-6.731-22.673-16.11l-0.051-0.168-114.194-336c-5.288-15.566 6.284-31.722 22.724-31.722h58.266c10.899 0 20.1 7.265 23.027 17.216l0.043 0.17 17.148 59.812h102.734l17.586-59.954c3.016-10.048 12.183-17.244 23.029-17.244 0 0 0 0 0.001 0h58.344c16.44 0 28.012 16.156 22.722 31.722zM860.32 512.772c0 117.954-75.838 191.228-197.92 191.228h-114.732c-13.254 0-24-10.746-24-24v-336c0-13.254 10.746-24 24-24h114.732c122.082 0 197.92 73.866 197.92 192.772z" />
<glyph unicode="&#xe926;" glyph-name="backward3" d="M23 462.8l384-320c41.2-34.4 105-5.6 105 49.2v640c0 54.8-63.8 83.6-105 49.2l-384-320c-30.6-25.6-30.6-72.8 0-98.4zM535 462.8l384-320c41.2-34.4 105-5.6 105 49.2v640c0 54.8-63.8 83.6-105 49.2l-384-320c-30.6-25.6-30.6-72.8 0-98.4z" />
<glyph unicode="&#xe927;" glyph-name="balance-scale" horiz-adv-x="1280" d="M704 128h336c26.51 0 48-21.49 48-48v-32c0-26.51-21.49-48-48-48h-800c-26.51 0-48 21.49-48 48v32c0 26.51 21.49 48 48 48h336v589.352c-47.062 20.568-82.328 63.092-92.794 114.648h-243.206c-26.51 0-48 21.49-48 48v32c0 26.51 21.49 48 48 48h271.998c29.19 38.86 75.658 64 128.002 64s98.812-25.14 128.002-64h271.998c26.51 0 48-21.49 48-48v-32c0-26.51-21.49-48-48-48h-243.206c-10.466-51.556-45.732-94.080-92.794-114.648v-589.352zM1279.962 352c0.002 32.364 2.684 17.452-170.096 363.012-35.294 70.588-136.372 70.716-171.73 0-174.256-348.512-170.098-331.674-170.098-363.012h-0.038c0-88.366 114.616-160 256-160s256 71.634 256 160h-0.038zM1024 672l144-288h-288l144 288zM511.962 352c0.002 32.364 2.684 17.452-170.096 363.012-35.294 70.588-136.372 70.716-171.73 0-174.256-348.512-170.098-331.674-170.098-363.012h-0.038c0-88.366 114.616-160 256-160s256 71.634 256 160h-0.038zM256 672l144-288h-288l144 288z" />
<glyph unicode="&#xe928;" glyph-name="ban" d="M512 1008c-273.932 0-496-222.066-496-496s222.068-496 496-496 496 222.068 496 496-222.066 496-496 496zM772.216 772.216c130.896-130.896 140-330.962 41.354-471.274l-512.63 512.626c140.408 98.712 340.452 89.47 471.276-41.352zM251.784 251.784c-130.896 130.896-140 330.962-41.354 471.274l512.63-512.626c-140.406-98.712-340.452-89.472-471.276 41.352z" />
<glyph unicode="&#xe929;" glyph-name="barcode3" d="M0 128v768h36v-768h-36zM53.714 128.546v767.454h18.286v-767.454h-18.286zM108 128.546v767.454h17.714v-767.454h-17.714zM197.714 128.546v767.454h17.714v-767.454h-17.714zM269.714 128.546v767.454h35.428v-767.454h-35.428zM359.428 128.546v767.454h17.714v-767.454h-17.714zM395.428 128.546v767.454h17.714v-767.454h-17.714zM431.428 128.546v767.454h17.714v-767.454h-17.714zM502.858 128.546v767.454h36v-767.454h-36zM592.572 128.546v767.454h36v-767.454h-36zM664.57 128.546v767.454h36.002v-767.454h-36.002zM736.572 128.546v767.454h36.002v-767.454h-36.002zM790.286 128.546v767.454h36v-767.454h-36zM880.572 128.546v767.454h53.714v-767.454h-53.714zM952 128.546v767.454h18.286v-767.454h-18.286zM988 128v768h36v-768h-36z" />
<glyph unicode="&#xe92a;" glyph-name="bars" horiz-adv-x="896" d="M32 760h832c17.674 0 32 14.326 32 32v80c0 17.674-14.326 32-32 32h-832c-17.674 0-32-14.326-32-32v-80c0-17.674 14.326-32 32-32zM32 440h832c17.674 0 32 14.326 32 32v80c0 17.674-14.326 32-32 32h-832c-17.674 0-32-14.326-32-32v-80c0-17.674 14.326-32 32-32zM32 120h832c17.674 0 32 14.326 32 32v80c0 17.674-14.326 32-32 32h-832c-17.674 0-32-14.326-32-32v-80c0-17.674 14.326-32 32-32z" />
<glyph unicode="&#xe92b;" glyph-name="baseball-ball" horiz-adv-x="992" d="M737 296.2l57.6 27.8c22.2-45.8 52-86.4 88.2-121.8 68 85 109 192.6 109 309.8 0 117-40.8 224.4-108.4 309.2-35.6-34.6-65.2-74.2-87.2-119l-57.4 28.2c25.6 52 60 98 101.6 138-89.2 86.2-210.4 139.6-344.4 139.6-133.8 0-255-53.2-344.2-139.4 41.4-39.8 75.8-85.8 101.4-137.6l-57.4-28.2c-22 44.6-51.4 84.2-87 118.8-68-85-108.8-192.4-108.8-309.6s40.8-224.6 108.8-309.4c36.4 35.4 66.4 76 88.6 122l57.6-27.8c-25.8-53.4-60.6-100.6-103-141.4 89-86.2 210.2-139.4 344-139.4 133.6 0 254.6 53 343.8 139-42.2 40.8-77 87.8-102.8 141.2zM280.4 360.2l-61 19.6c29.8 92.8 25.4 187.6-1.2 268l60.8 20c30-91.2 36-199.8 1.4-307.6zM713 667l60.8-20c-26.4-80.2-31-175-1.2-268l-61-19.6c-34.6 108-28.6 216.6 1.4 307.6z" />
<glyph unicode="&#xe92c;" glyph-name="basketball-ball" horiz-adv-x="992" d="M424.6 1003.4c-87.6-12.6-172.4-48.2-244.4-107.6l154.8-154.8c55.6 71.6 86.6 162.4 89.6 262.4zM496 580l315.8 315.8c-84.8 70-187.2 107-291 112.2-2.4-127.8-43-244.6-117.4-335.4l92.6-92.6zM112.2 827.8c-59.4-72-95-156.8-107.6-244.4 100 3 191 34 262.4 89.6l-154.8 154.8zM656.6 419.4c90.6 74.2 207.4 114.8 335.4 117.4-5.2 103.8-42.2 206.2-112.2 291l-315.8-315.8 92.6-92.6zM496 444l-315.8-315.8c84.8-69.8 187.2-107 291-112.2 2.6 128 43.2 244.8 117.4 335.4l-92.6 92.6zM879.8 196.2c59.4 72 95 156.8 107.6 244.4-100.2-3.2-191-34.2-262.4-89.6l154.8-154.8zM335.4 604.6c-90.8-74.4-207.6-115.2-335.4-117.4 5.2-103.8 42.2-206.2 112.2-291l315.8 315.8-92.6 92.6zM567.4 20.6c87.6 12.6 172.4 48.2 244.4 107.6l-154.8 154.8c-55.4-71.4-86.4-162.4-89.6-262.4z" />
<glyph unicode="&#xe92d;" glyph-name="bath" d="M976 512h-816v288c0 35.29 28.71 64 64 64 22.702 0 42.664-11.89 54.030-29.76-32.984-50.414-29.374-119.152 13.676-166.070-8.352-9.426-8.042-23.832 0.982-32.856l22.628-22.628c9.372-9.372 24.568-9.372 33.942 0l190.060 190.058c9.372 9.372 9.372 24.568 0 33.942l-22.628 22.628c-9.024 9.024-23.43 9.332-32.856 0.982-35.898 32.938-84.588 42.858-128.356 30.73-28.916 41.64-77.054 68.974-131.478 68.974-88.224 0-160-71.776-160-160v-288h-16c-26.51 0-48-21.49-48-48v-32c0-26.51 21.49-48 48-48h16v-64c0-56.86 24.724-107.938 64-143.094v-64.906c0-26.51 21.49-48 48-48h32c26.51 0 48 21.49 48 48v16h512v-16c0-26.51 21.49-48 48-48h32c26.51 0 48 21.49 48 48v64.906c39.276 35.156 64 86.234 64 143.094v64h16c26.51 0 48 21.49 48 48v32c0 26.51-21.49 48-48 48z" />
<glyph unicode="&#xe92e;" glyph-name="battery-empty" horiz-adv-x="1280" d="M1088 704v-128h64v-128h-64v-128h-960v384h960zM1120 832h-1024c-53.020 0-96-42.98-96-96v-448c0-53.020 42.98-96 96-96h1024c53.020 0 96 42.98 96 96v32h16c26.51 0 48 21.49 48 48v288c0 26.51-21.49 48-48 48h-16v32c0 53.020-42.98 96-96 96z" />
<glyph unicode="&#xe92f;" glyph-name="battery-full" horiz-adv-x="1280" d="M1088 704v-128h64v-128h-64v-128h-960v384h960zM1120 832h-1024c-53.020 0-96-42.98-96-96v-448c0-53.020 42.98-96 96-96h1024c53.020 0 96 42.98 96 96v32h16c26.51 0 48 21.49 48 48v288c0 26.51-21.49 48-48 48h-16v32c0 53.020-42.98 96-96 96zM1024 640h-832v-256h832v256z" />
<glyph unicode="&#xe930;" glyph-name="battery-half" horiz-adv-x="1280" d="M1088 704v-128h64v-128h-64v-128h-960v384h960zM1120 832h-1024c-53.020 0-96-42.98-96-96v-448c0-53.020 42.98-96 96-96h1024c53.020 0 96 42.98 96 96v32h16c26.51 0 48 21.49 48 48v288c0 26.51-21.49 48-48 48h-16v32c0 53.020-42.98 96-96 96zM640 640h-448v-256h448v256z" />
<glyph unicode="&#xe931;" glyph-name="battery-quarter" horiz-adv-x="1280" d="M1088 704v-128h64v-128h-64v-128h-960v384h960zM1120 832h-1024c-53.020 0-96-42.98-96-96v-448c0-53.020 42.98-96 96-96h1024c53.020 0 96 42.98 96 96v32h16c26.51 0 48 21.49 48 48v288c0 26.51-21.49 48-48 48h-16v32c0 53.020-42.98 96-96 96zM448 640h-256v-256h256v256z" />
<glyph unicode="&#xe932;" glyph-name="battery-three-quarters" horiz-adv-x="1280" d="M1088 704v-128h64v-128h-64v-128h-960v384h960zM1120 832h-1024c-53.020 0-96-42.98-96-96v-448c0-53.020 42.98-96 96-96h1024c53.020 0 96 42.98 96 96v32h16c26.51 0 48 21.49 48 48v288c0 26.51-21.49 48-48 48h-16v32c0 53.020-42.98 96-96 96zM832 640h-640v-256h640v256z" />
<glyph unicode="&#xe933;" glyph-name="bed3" horiz-adv-x="1152" d="M1104 448c26.51 0 48-21.49 48-48v-272h-192v128h-768v-128h-192v720c0 26.51 21.49 48 48 48h96c26.51 0 48-21.49 48-48v-400h912zM384 832c-88.366 0-160-71.634-160-160s71.634-160 160-160 160 71.634 160 160-71.634 160-160 160zM1152 576c0 106.038-85.962 192-192 192h-336c-26.51 0-48-21.49-48-48v-208h576v64z" />
<glyph unicode="&#xe934;" glyph-name="beer" horiz-adv-x="896" d="M736 832h-96v80c0 26.51-21.49 48-48 48h-544c-26.51 0-48-21.49-48-48v-800c0-26.51 21.49-48 48-48h544c26.51 0 48 21.49 48 48v84.22l161.212 71.954c57.58 25.7 94.788 83.050 94.788 146.106v257.72c0 88.224-71.776 160-160 160zM768 414.28c-0.010-12.947-7.698-24.097-18.758-29.14l-0.2-0.082-109.042-48.668v367.61h96c17.644 0 32-14.356 32-32v-257.72zM416 256c-17.672 0-32 14.328-32 32v448c0 17.672 14.328 32 32 32s32-14.328 32-32v-448c0-17.672-14.328-32-32-32zM224 256c-17.672 0-32 14.328-32 32v448c0 17.672 14.328 32 32 32s32-14.328 32-32v-448c0-17.672-14.328-32-32-32z" />
<glyph unicode="&#xe935;" glyph-name="bell-slash" horiz-adv-x="1152" d="M156.214 291.882c-60.298-60.298-17.564-163.882 67.882-163.882h223.904c0-70.692 57.308-128 128-128s128 57.308 128 128h65.37l-513.674 453.242c-4.396-194.156-56.878-246.756-99.482-289.36zM528 128c0-26.468 21.532-48 48-48 8.837 0 16-7.163 16-16s-7.163-16-16-16v0c-44.112 0-80 35.888-80 80h32zM1139.792 40.534l-21.524-24.172c-17.83-20.024-48.666-21.934-68.874-4.266l-1032.882 903.118c-20.208 17.67-22.134 48.226-4.304 68.252l21.522 24.172c17.832 20.024 48.668 21.934 68.876 4.264l227.62-199.024c48.034 57.556 115.892 97.992 193.1 110.78-7.088 10.124-11.326 22.696-11.326 36.258 0 0.029 0 0.059 0 0.088v-0.005c0 35.346 28.654 64 64 64s64-28.654 64-64c0-13.5-4.19-26.016-11.326-36.34 151.664-25.122 267.326-156.872 267.326-315.66 0-216.236 55.268-271.618 99.768-316.118 24.298-24.298 31.846-55.552 26.66-84.242l113.060-98.854c20.208-17.67 22.134-48.226 4.304-68.252z" />
<glyph unicode="&#xe936;" glyph-name="bell4" horiz-adv-x="896" d="M867.768 291.882c-44.5 44.5-99.768 99.882-99.768 316.118 0 158.788-115.662 290.538-267.326 315.66 7.088 10.123 11.326 22.694 11.326 36.255 0 0.030 0 0.060 0 0.089v-0.005c0 35.346-28.654 64-64 64s-64-28.654-64-64c0-13.5 4.19-26.016 11.326-36.34-151.664-25.122-267.326-156.872-267.326-315.66 0-216.236-55.286-271.618-99.786-316.118-60.298-60.298-17.564-163.882 67.882-163.882h223.904c0-70.692 57.308-128 128-128s128 57.308 128 128h223.886c85.276 0 128.302 103.462 67.882 163.882zM448 80c8.837 0 16-7.163 16-16s-7.163-16-16-16v0c-44.112 0-80 35.888-80 80h32c0-26.468 21.532-48 48-48z" />
<glyph unicode="&#xe937;" glyph-name="bicycle" horiz-adv-x="1280" d="M1025.018 639.998c-32.746 0.128-64.060-5.91-92.872-16.99l-155.36 250.306c-8.61 13.708-23.648 22.686-40.782 22.686-0.001 0-0.001 0-0.002 0h-128c-17.674 0-32-14.326-32-32v-32c0-17.674 14.326-32 32-32h101.298l29.792-48h-227.088v32c0 17.674-14.326 32-32 32h-174.918c-26.882 0-49.554-21.998-49.072-48.874 0.464-26.088 21.752-47.126 47.99-47.126h97.452l-58.834-95.040c-26.866 9.66-55.808 14.966-85.984 15.040-140.45 0.34-255.814-114.024-256.634-254.472-0.83-142.086 114.106-257.528 256-257.528 119.284 0 219.516 81.586 247.934 192h104.066c17.154 0 32.207 8.999 40.695 22.533l0.117 0.201 171.924 277.726 29.876-48.134c-50.91-46.896-82.77-114.162-82.614-188.874 0.29-137.666 115.798-254.102 253.458-255.438 141.212-1.37 256.362 111.606 258.51 251.992 2.172 141.882-113.052 259.44-254.952 259.992zM373.5 492.456c19.454-21.058 33.346-47.322 39.284-76.456h-86.612l47.328 76.456zM256.004 224c-88.224 0-160 71.776-160 160s71.776 160 160 160c11.738 0 23.172-1.306 34.198-3.718l-91.010-147.018c-19.762-31.918 3.234-73.264 40.812-73.264h162.6c-24.74-56.45-81.124-96-146.6-96zM581.264 416h-71.248c-7.92 63.512-39.112 119.788-84.766 160.052l49.492 79.948h255.094l-148.572-240zM1015.378 224.228c-82.072 4.33-148.098 71.384-151.254 153.51-1.624 42.242 13.266 81.036 38.67 110.526l88.866-143.172c9.32-15.016 29.048-19.632 44.064-10.312l27.188 16.874c15.016 9.32 19.634 29.048 10.312 44.064l-88.936 143.286c11.896 3.172 25.554 4.994 39.638 4.994 0.027 0 0.055 0 0.082 0h-0.004c88.224 0 160-71.776 160-160-0.002-91.080-76.504-164.632-168.626-159.77z" />
<glyph unicode="&#xe938;" glyph-name="binoculars3" d="M384 816h-192v96c0 26.51 21.49 48 48 48h96c26.51 0 48-21.49 48-48v-96zM832 912c0 26.51-21.49 48-48 48h-96c-26.51 0-48-21.49-48-48v-96h192v96zM0 112c0-26.51 21.49-48 48-48h240c26.51 0 48 21.49 48 48v32h-336v-32zM176 768c-26.51 0-48-21.49-48-48 0-208-128-240-128-528h336v208c0 26.51 21.49 48 48 48v320h-208zM688 112c0-26.51 21.49-48 48-48h240c26.51 0 48 21.49 48 48v32h-336v-32zM432 768v-320h160v320h-160zM688 192h336c0 288-128 320-128 528 0 26.51-21.49 48-48 48h-208v-320c26.51 0 48-21.49 48-48v-208z" />
<glyph unicode="&#xe939;" glyph-name="birthday-cake" horiz-adv-x="896" d="M896 256c-56.040 0-62.52 64-149 64-86.86 0-93.65-64-149.5-64-55.39 0-62.908 64-149.5 64-85.684 0-94.436-64-149-64-56.296 0-62.404 64-149.5 64-87.094 0-93.306-64-149.5-64v160c0 53 43 96 96 96h32v288h128v-288h128v288h128v-288h128v288h128v-288h32c53 0 96-43 96-96v-160zM896 0h-896v192c86.712 0 93.534 64 149.5 64 55.902 0 62.506-64 149.5-64 85.686 0 94.434 64 149 64 56.296 0 62.402-64 149.5-64 86.714 0 93.534 64 149.5 64 54.976 0 62.504-64 149-64v-192zM192 832c-35.5 0-64 28.5-64 64 0 62 64 46 64 128 24 0 64-59 64-112s-28.5-80-64-80zM448 832c-35.5 0-64 28.5-64 64 0 62 64 46 64 128 24 0 64-59 64-112s-28.5-80-64-80zM704 832c-35.5 0-64 28.5-64 64 0 62 64 46 64 128 24 0 64-59 64-112s-28.5-80-64-80z" />
<glyph unicode="&#xe93a;" glyph-name="blind" horiz-adv-x="768" d="M760.3 2.326c-2.366-1.458-5.233-2.322-8.302-2.322-5.767 0-10.821 3.051-13.637 7.627l-0.040 0.069-250.66 412.854c10.394 4.192 19.108 10.675 25.827 18.858l0.089 0.112 252.096-415.216c1.459-2.367 2.324-5.235 2.324-8.304 0-5.768-3.052-10.822-7.629-13.638l-0.069-0.040zM285.606 395.324l-65.080-178.97 72.24-176.57c13.386-32.72 50.754-48.384 83.466-35.002 32.714 13.384 48.386 50.752 35.002 83.468l-125.628 307.074zM192 848c48.602 0 88 39.398 88 88s-39.398 88-88 88-88-39.398-88-88 39.398-88 88-88zM501.674 509.744l-240 304c-9.466 11.99-23.5 18.216-37.674 18.224v0.032l-64-0.052c-14.292-0.006-28.434-6.322-37.888-18.48l-122.112-157v-191.388c0-26.91 22.022-49.582 48.928-49.072 26.082 0.496 47.072 21.792 47.072 47.992v159.532l32 41.142v-281.396l-108.146-297.388c-12.080-33.218 5.056-69.938 38.276-82.018 33.204-12.078 69.936 5.048 82.018 38.276l131.852 362.576v214.394l-62.812 79.632c-1.079 1.352-1.732 3.085-1.732 4.971 0 4.419 3.582 8.001 8.001 8.001 2.533 0 4.791-1.177 6.257-3.014l0.012-0.016 204.6-258.434c18.29-23.168 48.736-22.678 67.416-7.93 20.82 16.432 24.318 46.668 7.932 67.416z" />
<glyph unicode="&#xe93b;" glyph-name="bold3" horiz-adv-x="768" d="M609.586 536.218c67.278 37.074 107.314 108.32 107.314 191.386 0 96.472-52.5 175.252-137.252 208.358-49.372 20.018-97.95 24.038-160.326 24.038h-371.322c-17.674 0-32-14.326-32-32v-66.098c0-17.674 14.326-32 32-32h66.226v-637.060h-66.226c-17.674 0-32-14.326-32-32v-64.842c0-17.674 14.326-32 32-32h391.38c48.406 0 89.668 2.578 133.732 15.168 101.928 30.446 178.888 123.538 178.888 244.804 0 104.336-53.146 183.368-142.414 212.246zM284.434 822.382h134.888c32.588 0 55.072-4.038 75.050-13.434 31.656-16.958 49.812-53.004 49.812-98.892 0-70.058-40.64-113.58-106.058-113.58h-153.692v225.906zM509.718 211.432c-20.28-8.112-45.354-9.814-62.818-9.814h-162.466v258.496h168.734c79.29 0 126.114-50.76 126.114-126.114 0.002-56.85-27.32-104.966-69.564-122.568z" />
<glyph unicode="&#xe93c;" glyph-name="bolt" horiz-adv-x="640" d="M591.946 704h-230.802l69.236 259.632c8.12 30.456-14.868 60.368-46.38 60.368h-272c-24.058 0-44.4-17.81-47.578-41.656l-63.992-480c-3.838-28.778 18.578-54.344 47.578-54.344h237.402l-92.118-388.932c-7.192-30.366 16.026-59.068 46.692-59.068 16.7 0 32.752 8.748 41.556 23.956l351.946 607.994c18.488 31.934-4.576 72.050-41.54 72.050z" />
<glyph unicode="&#xe93d;" glyph-name="bomb2" d="M881 847l-104-104 53-53c18.8-18.8 18.8-49.2 0-67.8l-34.8-34.8c23.6-52.2 36.8-110.2 36.8-171.2 0-229.8-186.2-416-416-416s-416 186-416 415.8 186.2 416 416 416c61 0 119-13.2 171.2-36.8l34.8 34.8c18.8 18.8 49.2 18.8 67.8 0l53-53 104 104 34.2-34zM1000 904h-48c-13.2 0-24-10.8-24-24s10.8-24 24-24h48c13.2 0 24 10.8 24 24s-10.8 24-24 24zM880 1024c-13.2 0-24-10.8-24-24v-48c0-13.2 10.8-24 24-24s24 10.8 24 24v48c0 13.2-10.8 24-24 24zM947.8 914l34 34c9.4 9.4 9.4 24.6 0 34s-24.6 9.4-34 0l-34-34c-9.4-9.4-9.4-24.6 0-34 9.6-9.4 24.8-9.4 34 0zM812.2 914c9.4-9.4 24.6-9.4 34 0s9.4 24.6 0 34l-34 34c-9.4 9.4-24.6 9.4-34 0s-9.4-24.6 0-34l34-34zM947.8 846c-9.4 9.4-24.6 9.4-34 0s-9.4-24.6 0-34l34-34c9.4-9.4 24.6-9.4 34 0s9.4 24.6 0 34l-34 34zM224 480c0 70.6 57.4 128 128 128 17.6 0 32 14.4 32 32s-14.4 32-32 32c-105.8 0-192-86.2-192-192 0-17.6 14.4-32 32-32s32 14.4 32 32z" />
<glyph unicode="&#xe93e;" glyph-name="book4" horiz-adv-x="896" d="M896 304v672c0 26.6-21.4 48-48 48h-656c-106 0-192-86-192-192v-640c0-106 86-192 192-192h656c26.6 0 48 21.4 48 48v32c0 15-7 28.6-17.8 37.4-8.4 30.8-8.4 118.6 0 149.4 10.8 8.6 17.8 22.2 17.8 37.2zM256 756c0 6.6 5.4 12 12 12h424c6.6 0 12-5.4 12-12v-40c0-6.6-5.4-12-12-12h-424c-6.6 0-12 5.4-12 12v40zM256 628c0 6.6 5.4 12 12 12h424c6.6 0 12-5.4 12-12v-40c0-6.6-5.4-12-12-12h-424c-6.6 0-12 5.4-12 12v40zM762.8 128h-570.8c-35.4 0-64 28.6-64 64 0 35.2 28.8 64 64 64h570.8c-3.8-34.2-3.8-93.8 0-128z" />
<glyph unicode="&#xe93f;" glyph-name="bookmark5" horiz-adv-x="768" d="M0 0v928c0 53.020 42.98 96 96 96h576c53.020 0 96-42.98 96-96v-928l-384 224-384-224z" />
<glyph unicode="&#xe940;" glyph-name="bowling-ball" horiz-adv-x="992" d="M496 1008c-274 0-496-222-496-496s222-496 496-496 496 222 496 496-222 496-496 496zM240 640c-35.4 0-64 28.6-64 64s28.6 64 64 64 64-28.6 64-64-28.6-64-64-64zM368 832c0 35.4 28.6 64 64 64s64-28.6 64-64-28.6-64-64-64-64 28.6-64 64zM464 544c-35.4 0-64 28.6-64 64s28.6 64 64 64 64-28.6 64-64-28.6-64-64-64z" />
<glyph unicode="&#xe941;" glyph-name="braille" horiz-adv-x="1280" d="M256 512c0-70.692-57.308-128-128-128s-128 57.308-128 128 57.308 128 128 128 128-57.308 128-128zM128 256c-35.346 0-64-28.654-64-64s28.654-64 64-64 64 28.654 64 64-28.654 64-64 64zM128 960c-70.692 0-128-57.308-128-128s57.308-128 128-128 128 57.308 128 128-57.308 128-128 128zM448 576c-35.346 0-64-28.654-64-64s28.654-64 64-64 64 28.654 64 64-28.654 64-64 64zM448 256c-35.346 0-64-28.654-64-64s28.654-64 64-64 64 28.654 64 64-28.654 64-64 64zM448 960c-70.692 0-128-57.308-128-128s57.308-128 128-128 128 57.308 128 128-57.308 128-128 128zM896 576c-35.346 0-64-28.654-64-64s28.654-64 64-64 64 28.654 64 64-28.654 64-64 64zM896 256c-35.346 0-64-28.654-64-64s28.654-64 64-64 64 28.654 64 64-28.654 64-64 64zM896 960c-70.692 0-128-57.308-128-128s57.308-128 128-128 128 57.308 128 128-57.308 128-128 128zM1216 576c-35.346 0-64-28.654-64-64s28.654-64 64-64 64 28.654 64 64-28.654 64-64 64zM1216 256c-35.346 0-64-28.654-64-64s28.654-64 64-64 64 28.654 64 64-28.654 64-64 64zM1216 896c-35.346 0-64-28.654-64-64s28.654-64 64-64 64 28.654 64 64-28.654 64-64 64z" />
<glyph unicode="&#xe942;" glyph-name="briefcase4" d="M640 448h384v-288c0-53.020-42.98-96-96-96h-832c-53.020 0-96 42.98-96 96v288h384v-40c0-13.254 10.746-24 24-24h208c13.254 0 24 10.746 24 24v40zM1024 672v-160h-1024v160c0 53.020 42.98 96 96 96h160v96c0 53.020 42.98 96 96 96h320c53.020 0 96-42.98 96-96v-96h160c53.020 0 96-42.98 96-96zM640 832h-256v-64h256v64z" />
<glyph unicode="&#xe943;" glyph-name="bug3" d="M1023.976 446.2c-0.956-34.86-30.434-62.2-65.306-62.2h-110.67v-32c0-43.728-9.764-85.168-27.2-122.29l120.456-120.456c24.992-24.994 24.992-65.516 0-90.51-24.996-24.994-65.518-24.992-90.512 0l-109.472 109.472c-49.5-40.146-112.57-64.216-181.272-64.216v488c0 13.254-10.746 24-24 24h-48c-13.254 0-24-10.746-24-24v-488c-68.702 0-131.772 24.070-181.272 64.216l-109.472-109.472c-24.996-24.994-65.518-24.992-90.512 0-24.992 24.994-24.992 65.516 0 90.51l120.456 120.456c-17.436 37.122-27.2 78.562-27.2 122.29v32h-110.668c-34.872 0-64.35 27.34-65.306 62.2-0.994 36.168 28.030 65.8 63.974 65.8h112v117.49l-93.256 93.256c-24.992 24.994-24.992 65.516 0 90.51 24.996 24.994 65.516 24.994 90.512 0l109.254-109.256h458.978l109.254 109.254c24.996 24.994 65.516 24.994 90.512 0 24.992-24.994 24.992-65.516 0-90.51l-93.254-93.254v-117.49h112c35.944 0 64.968-29.632 63.976-65.8zM514 1024c-123.712 0-224-100.288-224-224h448c0 123.712-100.288 224-224 224z" />
<glyph unicode="&#xe944;" glyph-name="building" horiz-adv-x="896" d="M872 64h-40v912c0 26.51-21.49 48-48 48h-672c-26.51 0-48-21.49-48-48v-912h-40c-13.254 0-24-10.746-24-24v-40h896v40c0 13.254-10.746 24-24 24zM256 872c0 13.254 10.746 24 24 24h80c13.254 0 24-10.746 24-24v-80c0-13.254-10.746-24-24-24h-80c-13.254 0-24 10.746-24 24v80zM256 680c0 13.254 10.746 24 24 24h80c13.254 0 24-10.746 24-24v-80c0-13.254-10.746-24-24-24h-80c-13.254 0-24 10.746-24 24v80zM360 384h-80c-13.254 0-24 10.746-24 24v80c0 13.254 10.746 24 24 24h80c13.254 0 24-10.746 24-24v-80c0-13.254-10.746-24-24-24zM512 64h-128v168c0 13.254 10.746 24 24 24h80c13.254 0 24-10.746 24-24v-168zM640 408c0-13.254-10.746-24-24-24h-80c-13.254 0-24 10.746-24 24v80c0 13.254 10.746 24 24 24h80c13.254 0 24-10.746 24-24v-80zM640 600c0-13.254-10.746-24-24-24h-80c-13.254 0-24 10.746-24 24v80c0 13.254 10.746 24 24 24h80c13.254 0 24-10.746 24-24v-80zM640 792c0-13.254-10.746-24-24-24h-80c-13.254 0-24 10.746-24 24v80c0 13.254 10.746 24 24 24h80c13.254 0 24-10.746 24-24v-80z" />
<glyph unicode="&#xe945;" glyph-name="bullhorn2" horiz-adv-x="1152" d="M1152 576c0 41.792-26.72 77.332-64 90.516v229.484c0 70.692-57.308 128-128 128-129.97-112-284.062-256-544-256h-320c-53.020 0-96-42.98-96-96v-192c0-53.020 42.98-96 96-96h86.526c-37.484-129.3 4.958-232.758 37.628-334.88 3.404-10.64 10.406-19.786 19.844-25.76 41.56-26.31 136.71-31.314 187.546-10.302 32.092 13.266 39.92 54.846 15.044 79.074-37.016 36.052-60.272 73.82-39.59 121.716 1.275 2.873 2.018 6.224 2.018 9.749 0 5.067-1.534 9.775-4.164 13.685l0.056-0.088c-32.618 49.358-7.162 124.214 57.034 145.504 234.864-14.472 379.24-148.86 502.058-254.698 70.692 0 128 57.308 128 128v229.484c37.28 13.184 64 48.724 64 90.516zM960 296.29c-109.218 89.958-250.066 185.88-448 209.964v139.494c197.934 24.084 338.782 120.004 448 209.964v-559.422z" />
<glyph unicode="&#xe946;" glyph-name="bullseye" d="M512 880c203.378 0 368-164.59 368-368 0-203.378-164.59-368-368-368-203.378 0-368 164.59-368 368 0 203.378 164.59 368 368 368zM512 1008c-273.934 0-496-222.066-496-496s222.066-496 496-496 496 222.066 496 496-222.066 496-496 496zM512 640c70.58 0 128-57.42 128-128s-57.42-128-128-128-128 57.42-128 128 57.42 128 128 128zM512 768c-141.384 0-256-114.616-256-256s114.616-256 256-256 256 114.616 256 256-114.616 256-256 256z" />
<glyph unicode="&#xe947;" glyph-name="bus2" d="M1024 720v-160c0-26.51-21.49-48-48-48h-16v-336c0-26.51-21.49-48-48-48h-16v-80c0-26.51-21.49-48-48-48h-96c-26.51 0-48 21.49-48 48v80h-384v-80c0-26.51-21.49-48-48-48h-96c-26.51 0-48 21.49-48 48v80h-16c-26.51 0-48 21.49-48 48v336h-16c-26.51 0-48 21.49-48 48v160c0 26.51 21.49 48 48 48h16v96c0 88.366 200.576 160 448 160s448-71.634 448-160v-96h16c26.51 0 48-21.49 48-48zM224 384c-44.182 0-80-35.818-80-80s35.818-80 80-80 80 35.818 80 80-35.818 80-80 80zM800 384c-44.182 0-80-35.818-80-80s35.818-80 80-80 80 35.818 80 80-35.818 80-80 80zM864 496v288c0 26.51-21.49 48-48 48h-608c-26.51 0-48-21.49-48-48v-288c0-26.51 21.49-48 48-48h608c26.51 0 48 21.49 48 48z" />
<glyph unicode="&#xe948;" glyph-name="calculator4" horiz-adv-x="896" d="M0 96v832c0 53.020 42.98 96 96 96h704c53.020 0 96-42.98 96-96v-832c0-53.020-42.98-96-96-96h-704c-53.020 0-96 42.98-96 96zM768 664v208c0 13.254-10.746 24-24 24h-592c-13.254 0-24-10.746-24-24v-208c0-13.254 10.746-24 24-24h592c13.254 0 24 10.746 24 24zM256 408v80c0 13.254-10.746 24-24 24h-80c-13.254 0-24-10.746-24-24v-80c0-13.254 10.746-24 24-24h80c13.254 0 24 10.746 24 24zM768 152v336c0 13.254-10.746 24-24 24h-80c-13.254 0-24-10.746-24-24v-336c0-13.254 10.746-24 24-24h80c13.254 0 24 10.746 24 24zM256 152v80c0 13.254-10.746 24-24 24h-80c-13.254 0-24-10.746-24-24v-80c0-13.254 10.746-24 24-24h80c13.254 0 24 10.746 24 24zM512 408v80c0 13.254-10.746 24-24 24h-80c-13.254 0-24-10.746-24-24v-80c0-13.254 10.746-24 24-24h80c13.254 0 24 10.746 24 24zM512 152v80c0 13.254-10.746 24-24 24h-80c-13.254 0-24-10.746-24-24v-80c0-13.254 10.746-24 24-24h80c13.254 0 24 10.746 24 24z" />
<glyph unicode="&#xe949;" glyph-name="calendar-alt" horiz-adv-x="896" d="M872 704h-848c-13.2 0-24 10.8-24 24v72c0 53 43 96 96 96h96v104c0 13.2 10.8 24 24 24h80c13.2 0 24-10.8 24-24v-104h256v104c0 13.2 10.8 24 24 24h80c13.2 0 24-10.8 24-24v-104h96c53 0 96-43 96-96v-72c0-13.2-10.8-24-24-24zM24 640h848c13.2 0 24-10.8 24-24v-520c0-53-43-96-96-96h-704c-53 0-96 43-96 96v520c0 13.2 10.8 24 24 24zM256 232c0 13.2-10.8 24-24 24h-80c-13.2 0-24-10.8-24-24v-80c0-13.2 10.8-24 24-24h80c13.2 0 24 10.8 24 24v80zM256 488c0 13.2-10.8 24-24 24h-80c-13.2 0-24-10.8-24-24v-80c0-13.2 10.8-24 24-24h80c13.2 0 24 10.8 24 24v80zM512 232c0 13.2-10.8 24-24 24h-80c-13.2 0-24-10.8-24-24v-80c0-13.2 10.8-24 24-24h80c13.2 0 24 10.8 24 24v80zM512 488c0 13.2-10.8 24-24 24h-80c-13.2 0-24-10.8-24-24v-80c0-13.2 10.8-24 24-24h80c13.2 0 24 10.8 24 24v80zM768 232c0 13.2-10.8 24-24 24h-80c-13.2 0-24-10.8-24-24v-80c0-13.2 10.8-24 24-24h80c13.2 0 24 10.8 24 24v80zM768 488c0 13.2-10.8 24-24 24h-80c-13.2 0-24-10.8-24-24v-80c0-13.2 10.8-24 24-24h80c13.2 0 24 10.8 24 24v80z" />
<glyph unicode="&#xe94a;" glyph-name="calendar-check" horiz-adv-x="896" d="M872 704h-848c-13.254 0-24 10.746-24 24v72c0 53.020 42.98 96 96 96h96v104c0 13.254 10.746 24 24 24h80c13.254 0 24-10.746 24-24v-104h256v104c0 13.254 10.746 24 24 24h80c13.254 0 24-10.746 24-24v-104h96c53.020 0 96-42.98 96-96v-72c0-13.254-10.746-24-24-24zM24 640h848c13.254 0 24-10.746 24-24v-520c0-53.020-42.98-96-96-96h-704c-53.020 0-96 42.98-96 96v520c0 13.254 10.746 24 24 24zM690.592 448.106l-56.338 56.796c-9.334 9.41-24.53 9.472-33.94 0.136l-212.074-210.368-91.96 92.704c-9.334 9.41-24.532 9.472-33.942 0.136l-56.794-56.34c-9.41-9.334-9.472-24.53-0.136-33.94l165.202-166.538c9.334-9.41 24.53-9.472 33.94-0.136l285.906 283.61c9.41 9.334 9.472 24.53 0.136 33.94z" />
<glyph unicode="&#xe94b;" glyph-name="calendar-minus" horiz-adv-x="896" d="M872 704h-848c-13.2 0-24 10.8-24 24v72c0 53 43 96 96 96h96v104c0 13.2 10.8 24 24 24h80c13.2 0 24-10.8 24-24v-104h256v104c0 13.2 10.8 24 24 24h80c13.2 0 24-10.8 24-24v-104h96c53 0 96-43 96-96v-72c0-13.2-10.8-24-24-24zM24 640h848c13.2 0 24-10.8 24-24v-520c0-53-43-96-96-96h-704c-53 0-96 43-96 96v520c0 13.2 10.8 24 24 24zM632 256c13.2 0 24 10.8 24 24v80c0 13.2-10.8 24-24 24h-368c-13.2 0-24-10.8-24-24v-80c0-13.2 10.8-24 24-24h368z" />
<glyph unicode="&#xe94c;" glyph-name="calendar-plus" horiz-adv-x="896" d="M872 704h-848c-13.2 0-24 10.8-24 24v72c0 53 43 96 96 96h96v104c0 13.2 10.8 24 24 24h80c13.2 0 24-10.8 24-24v-104h256v104c0 13.2 10.8 24 24 24h80c13.2 0 24-10.8 24-24v-104h96c53 0 96-43 96-96v-72c0-13.2-10.8-24-24-24zM24 640h848c13.2 0 24-10.8 24-24v-520c0-53-43-96-96-96h-704c-53 0-96 43-96 96v520c0 13.2 10.8 24 24 24zM656 360c0 13.2-10.8 24-24 24h-120v120c0 13.2-10.8 24-24 24h-80c-13.2 0-24-10.8-24-24v-120h-120c-13.2 0-24-10.8-24-24v-80c0-13.2 10.8-24 24-24h120v-120c0-13.2 10.8-24 24-24h80c13.2 0 24 10.8 24 24v120h120c13.2 0 24 10.8 24 24v80z" />
<glyph unicode="&#xe94d;" glyph-name="calendar-times" horiz-adv-x="896" d="M872 704h-848c-13.2 0-24 10.8-24 24v72c0 53 43 96 96 96h96v104c0 13.2 10.8 24 24 24h80c13.2 0 24-10.8 24-24v-104h256v104c0 13.2 10.8 24 24 24h80c13.2 0 24-10.8 24-24v-104h96c53 0 96-43 96-96v-72c0-13.2-10.8-24-24-24zM24 640h848c13.2 0 24-10.8 24-24v-520c0-53-43-96-96-96h-704c-53 0-96 43-96 96v520c0 13.2 10.8 24 24 24zM538.6 320l96.2 96.2c9.4 9.4 9.4 24.6 0 34l-56.6 56.6c-9.4 9.4-24.6 9.4-34 0l-96.2-96.2-96.2 96.2c-9.4 9.4-24.6 9.4-34 0l-56.6-56.6c-9.4-9.4-9.4-24.6 0-34l96.2-96.2-96.2-96.2c-9.4-9.4-9.4-24.6 0-34l56.6-56.6c9.4-9.4 24.6-9.4 34 0l96.2 96.2 96.2-96.2c9.4-9.4 24.6-9.4 34 0l56.6 56.6c9.4 9.4 9.4 24.6 0 34l-96.2 96.2z" />
<glyph unicode="&#xe94e;" glyph-name="calendar6" horiz-adv-x="896" d="M24 640h848c13.2 0 24-10.8 24-24v-520c0-53-43-96-96-96h-704c-53 0-96 43-96 96v520c0 13.2 10.8 24 24 24zM896 728v72c0 53-43 96-96 96h-96v104c0 13.2-10.8 24-24 24h-80c-13.2 0-24-10.8-24-24v-104h-256v104c0 13.2-10.8 24-24 24h-80c-13.2 0-24-10.8-24-24v-104h-96c-53 0-96-43-96-96v-72c0-13.2 10.8-24 24-24h848c13.2 0 24 10.8 24 24z" />
<glyph unicode="&#xe94f;" glyph-name="camera-retro" d="M96 960c-53 0-96-43-96-96v-704c0-53 43-96 96-96h832c53 0 96 43 96 96v704c0 53-43 96-96 96h-832zM96 896h212c6.6 0 12-5.4 12-12v-40c0-6.6-5.4-12-12-12h-232c-6.6 0-12 5.4-12 12v20c0 17.6 14.4 32 32 32zM948 704h-872c-6.6 0-12 5.4-12 12v72c0 6.6 5.4 12 12 12h276l60.4 90.6c2.2 3.4 6 5.4 10 5.4h505.6c17.6 0 32-14.4 32-32v-148c0-6.6-5.4-12-12-12zM512 176c-132.4 0-240 107.6-240 240s107.6 240 240 240 240-107.6 240-240-107.6-240-240-240zM512 592c-97 0-176-79-176-176s79-176 176-176 176 79 176 176-79 176-176 176zM416 384c-17.6 0-32 14.4-32 32 0 70.6 57.4 128 128 128 17.6 0 32-14.4 32-32s-14.4-32-32-32c-35.2 0-64-28.8-64-64 0-17.6-14.4-32-32-32z" />
<glyph unicode="&#xe950;" glyph-name="camera4" d="M1024 736v-576c0-53-43-96-96-96h-832c-53 0-96 43-96 96v576c0 53 43 96 96 96h176l24.6 65.8c14 37.4 49.8 62.2 89.8 62.2h251c40 0 75.8-24.8 89.8-62.2l24.8-65.8h176c53 0 96-43 96-96zM752 448c0 132.4-107.6 240-240 240s-240-107.6-240-240 107.6-240 240-240 240 107.6 240 240zM688 448c0-97-79-176-176-176s-176 79-176 176 79 176 176 176 176-79 176-176z" />
<glyph unicode="&#xe951;" glyph-name="car3" d="M999.982 688h-109.63l-15.708 41.888c-18.384 49.026-50.85 90.702-93.884 120.526s-93.458 45.586-145.816 45.586h-245.888c-52.36 0-102.782-15.764-145.816-45.586-43.036-29.824-75.5-71.5-93.884-120.526l-15.708-41.888h-109.63c-16.382 0-27.948-16.048-22.768-31.59l16-48c3.276-9.616 12.228-16.41 22.768-16.41h57.63l-0.104-0.28c-39.1-21.906-65.544-63.714-65.544-111.72v-96c0-32.45 12.098-62.058 32-84.618v-123.382c0-26.51 21.49-48 48-48h96c26.51 0 48 21.49 48 48v80h512v-80c0-26.51 21.49-48 48-48h96c26.51 0 48 21.49 48 48v123.382c19.902 22.562 32 52.17 32 84.618v96c0 48.006-26.444 89.814-65.544 111.72l-0.104 0.28h57.63c10.54 0 19.492 6.794 22.718 16.241l0.050 0.169 16 48c5.18 15.542-6.386 31.59-22.768 31.59zM269.206 684.944c18.63 49.678 66.794 83.056 119.85 83.056h245.888c53.056 0 101.22-33.378 119.85-83.056l28.854-76.944h-543.296l28.854 76.944zM176 368c-35.346 0-64 28.654-64 64s28.654 64 64 64 96-60.654 96-96-60.654-32-96-32zM848 368c-35.346 0-96-3.346-96 32s60.654 96 96 96 64-28.654 64-64c0-35.346-28.654-64-64-64z" />
<glyph unicode="&#xe952;" glyph-name="caret-down" horiz-adv-x="640" d="M62.6 640h514.6c35.6 0 53.4-43 28.2-68.2l-257.2-257.4c-15.6-15.6-41-15.6-56.6 0l-257.2 257.4c-25.2 25.2-7.4 68.2 28.2 68.2z" />
<glyph unicode="&#xe953;" glyph-name="caret-left" horiz-adv-x="384" d="M384 769.324v-514.648c0-35.636-43.086-53.482-68.284-28.284l-257.324 257.324c-15.62 15.62-15.62 40.948 0 56.568l257.324 257.324c25.198 25.2 68.284 7.352 68.284-28.284z" />
<glyph unicode="&#xe954;" glyph-name="caret-right" horiz-adv-x="384" d="M0 254.676v514.648c0 35.636 43.086 53.482 68.284 28.284l257.324-257.324c15.62-15.62 15.62-40.948 0-56.568l-257.324-257.324c-25.198-25.2-68.284-7.352-68.284 28.284z" />
<glyph unicode="&#xe955;" glyph-name="caret-square-down" horiz-adv-x="896" d="M896 864v-704c0-53-43-96-96-96h-704c-53 0-96 43-96 96v704c0 53 43 96 96 96h704c53 0 96-43 96-96zM185 583l246-246c9.4-9.4 24.6-9.4 34 0l246 246c15.2 15.2 4.4 41-17 41h-492c-21.4 0-32.2-25.8-17-41z" />
<glyph unicode="&#xe956;" glyph-name="caret-square-left" horiz-adv-x="896" d="M800 64h-704c-53.020 0-96 42.98-96 96v704c0 53.020 42.98 96 96 96h704c53.020 0 96-42.98 96-96v-704c0-53.020-42.98-96-96-96zM519.030 775.030l-246.060-246.060c-9.372-9.372-9.372-24.568 0-33.942l246.058-246.058c15.12-15.12 40.97-4.412 40.97 16.97v492.118c0.002 21.382-25.85 32.090-40.968 16.972z" />
<glyph unicode="&#xe957;" glyph-name="caret-square-right" horiz-adv-x="896" d="M96 960h704c53.020 0 96-42.98 96-96v-704c0-53.020-42.98-96-96-96h-704c-53.020 0-96 42.98-96 96v704c0 53.020 42.98 96 96 96zM376.97 248.97l246.058 246.058c9.372 9.372 9.372 24.568 0 33.942l-246.058 246.060c-15.12 15.12-40.97 4.412-40.97-16.97v-492.118c0-21.382 25.852-32.090 40.97-16.972z" />
<glyph unicode="&#xe958;" glyph-name="caret-square-up" horiz-adv-x="896" d="M0 160v704c0 53.020 42.98 96 96 96h704c53.020 0 96-42.98 96-96v-704c0-53.020-42.98-96-96-96h-704c-53.020 0-96 42.98-96 96zM711.030 440.97l-246.060 246.060c-9.372 9.372-24.568 9.372-33.942 0l-246.058-246.060c-15.12-15.12-4.412-40.97 16.97-40.97h492.118c21.382 0 32.090 25.852 16.972 40.97z" />
<glyph unicode="&#xe959;" glyph-name="caret-up" horiz-adv-x="640" d="M577.324 320h-514.648c-35.636 0-53.482 43.086-28.284 68.284l257.324 257.324c15.62 15.62 40.948 15.62 56.568 0l257.324-257.324c25.2-25.198 7.352-68.284-28.284-68.284z" />
<glyph unicode="&#xe95a;" glyph-name="cart-arrow-down" horiz-adv-x="1152" d="M1009.434 384h-586.29l13.090-64h536.836c30.802 0 53.632-28.602 46.806-58.638l-11.034-48.552c37.382-18.146 63.158-56.466 63.158-100.81 0-62.404-51.038-112.888-113.648-111.988-59.646 0.858-108.7 49.262-110.31 108.894-0.88 32.574 12.17 62.098 33.606 83.096h-419.296c20.754-20.332 33.648-48.654 33.648-80.002 0-63.626-53.056-114.862-117.34-111.876-57.080 2.65-103.502 48.77-106.502 105.834-2.316 44.068 20.872 82.91 56.102 103.172l-140.494 686.87h-139.766c-26.51 0-48 21.49-48 48v32c0 26.51 21.49 48 48 48h205.058c22.802 0 42.456-16.042 47.026-38.38l18.332-89.62h785.564c30.802 0 53.632-28.602 46.806-58.638l-94.546-416c-4.966-21.854-24.394-37.362-46.806-37.362zM806.058 640h-86.058v120c0 13.254-10.746 24-24 24h-48c-13.254 0-24-10.746-24-24v-120h-86.058c-21.382 0-32.090-25.852-16.97-40.97l134.058-134.058c9.372-9.372 24.568-9.372 33.942 0l134.058 134.058c15.118 15.118 4.41 40.97-16.972 40.97z" />
<glyph unicode="&#xe95b;" glyph-name="cart-plus" horiz-adv-x="1152" d="M1009.434 384h-586.29l13.090-64h536.836c30.802 0 53.632-28.602 46.806-58.638l-11.034-48.552c37.382-18.146 63.158-56.466 63.158-100.81 0-62.404-51.038-112.888-113.648-111.988-59.646 0.858-108.7 49.262-110.31 108.894-0.88 32.574 12.17 62.098 33.606 83.096h-419.296c20.754-20.332 33.648-48.654 33.648-80.002 0-63.626-53.056-114.862-117.34-111.876-57.080 2.65-103.502 48.77-106.502 105.834-2.316 44.068 20.872 82.91 56.102 103.172l-140.494 686.87h-139.766c-26.51 0-48 21.49-48 48v32c0 26.51 21.49 48 48 48h205.058c22.802 0 42.456-16.042 47.026-38.38l18.332-89.62h785.564c30.802 0 53.632-28.602 46.806-58.638l-94.546-416c-4.966-21.854-24.394-37.362-46.806-37.362zM816 688h-96v80c0 17.674-14.326 32-32 32h-32c-17.674 0-32-14.326-32-32v-80h-96c-17.674 0-32-14.326-32-32v-32c0-17.674 14.326-32 32-32h96v-80c0-17.674 14.326-32 32-32h32c17.674 0 32 14.326 32 32v80h96c17.674 0 32 14.326 32 32v32c0 17.674-14.326 32-32 32z" />
<glyph unicode="&#xe95c;" glyph-name="certificate2" d="M917.244 512.16l91.97 90.010c27.416 25.954 14.632 72.078-21.328 80.678l-125.3 31.98 35.322 124.030c9.982 35.676-23.658 69.326-59.322 59.342l-123.988-35.334-31.968 125.342c-8.46 35.398-55.1 48.344-80.65 21.336l-89.98-92.684-89.978 92.682c-25.26 26.702-72.094 14.468-80.65-21.336l-31.968-125.342-123.99 35.334c-35.674 9.988-69.302-23.674-59.322-59.342l35.322-124.030-125.3-31.98c-35.976-8.602-48.734-54.734-21.33-80.676l91.97-90.010-91.97-90.008c-27.416-25.954-14.632-72.078 21.328-80.678l125.3-31.98-35.322-124.030c-9.982-35.676 23.658-69.326 59.322-59.342l123.988 35.334 31.968-125.342c8.878-37.15 55.392-48.036 80.65-21.336l89.982 92.002 89.978-92.002c25-26.976 71.974-14.972 80.65 21.336l31.968 125.342 123.988-35.334c35.672-9.988 69.302 23.674 59.322 59.342l-35.322 124.030 125.3 31.98c35.974 8.604 48.732 54.734 21.328 80.678l-91.968 90.008z" />
<glyph unicode="&#xe95d;" glyph-name="chart-area" d="M1000 256c13.2 0 24-10.8 24-24v-80c0-13.2-10.8-24-24-24h-976c-13.2 0-24 10.8-24 24v720c0 13.2 10.8 24 24 24h80c13.2 0 24-10.8 24-24v-616h872zM745.4 705l-169.4-113-170.6 227.4c-10.2 13.6-31 12.6-39.8-2l-173.6-289.4v-208h768l-179.8 375.6c-6.4 13-22.8 17.4-34.8 9.4z" />
<glyph unicode="&#xe95e;" glyph-name="chart-bar" d="M1000 256c13.2 0 24-10.8 24-24v-80c0-13.2-10.8-24-24-24h-976c-13.2 0-24 10.8-24 24v720c0 13.2 10.8 24 24 24h80c13.2 0 24-10.8 24-24v-616h872zM384 344v144c0 13.2-10.8 24-24 24h-80c-13.2 0-24-10.8-24-24v-144c0-13.2 10.8-24 24-24h80c13.2 0 24 10.8 24 24zM768 344v272c0 13.2-10.8 24-24 24h-80c-13.2 0-24-10.8-24-24v-272c0-13.2 10.8-24 24-24h80c13.2 0 24 10.8 24 24zM576 344v400c0 13.2-10.8 24-24 24h-80c-13.2 0-24-10.8-24-24v-400c0-13.2 10.8-24 24-24h80c13.2 0 24 10.8 24 24zM960 344v464c0 13.2-10.8 24-24 24h-80c-13.2 0-24-10.8-24-24v-464c0-13.2 10.8-24 24-24h80c13.2 0 24 10.8 24 24z" />
<glyph unicode="&#xe95f;" glyph-name="chart-line" d="M1000 256c13.2 0 24-10.8 24-24v-80c0-13.2-10.8-24-24-24h-976c-13.2 0-24 10.8-24 24v720c0 13.2 10.8 24 24 24h80c13.2 0 24-10.8 24-24v-616h872zM912 832h-224c-42.8 0-64.2-51.8-34-82l65.8-65.8-144-145.8-111.2 111.2c-9.4 9.4-24.4 9.4-33.8 0l-238-235.6c-9.4-9.2-9.6-24.4-0.4-33.8l57-58.8c9.4-9.6 24.8-9.8 34.2-0.2l164.2 164.2 111-111c9.4-9.4 24.6-9.4 34 0l218.4 218.4 66.8-66.8c30.2-30.2 82-8.8 82 34v224c0 26.6-21.4 48-48 48z" />
<glyph unicode="&#xe960;" glyph-name="chart-pie" horiz-adv-x="1152" d="M576 999.4v-455.4h455.4c13.8 0 24.6 11.6 24 25.4-12.8 244.8-209 441.2-454 454-13.8 0.6-25.4-10.2-25.4-24zM1105.4 448c13.8 0 24.6-11.6 24-25.4-5.6-106.4-46.4-211.2-122.4-295.6-9.2-10.2-25.2-10.8-35-1l-322 322h455.4zM802 158c9.6-9.6 9.4-25.6-0.8-34.6-85.2-76.8-198-123.4-321.6-123.4-264.4 0.2-480 216.4-479.6 481 0.4 256.2 201.6 465.2 454.6 478.4 13.8 0.8 25.4-10.2 25.4-24v-455.4l322-322z" />
<glyph unicode="&#xe961;" glyph-name="check-circle" d="M1008 512c0-273.934-222.066-496-496-496s-496 222.066-496 496 222.066 496 496 496 496-222.066 496-496zM454.628 249.372l368 368c12.496 12.496 12.496 32.758 0 45.254l-45.254 45.254c-12.496 12.498-32.758 12.498-45.256 0l-300.118-300.116-140.118 140.118c-12.496 12.496-32.758 12.496-45.256 0l-45.254-45.254c-12.496-12.496-12.496-32.758 0-45.254l208-208c12.498-12.498 32.758-12.498 45.256-0.002z" />
<glyph unicode="&#xe962;" glyph-name="check-square" horiz-adv-x="896" d="M800 64h-704c-53.020 0-96 42.98-96 96v704c0 53.020 42.98 96 96 96h704c53.020 0 96-42.98 96-96v-704c0-53.020-42.98-96-96-96zM390.628 260.118l368 368c12.496 12.496 12.496 32.758 0 45.254l-45.254 45.254c-12.496 12.496-32.758 12.498-45.256 0l-300.118-300.116-140.118 140.118c-12.496 12.496-32.758 12.496-45.256 0l-45.254-45.254c-12.496-12.496-12.496-32.758 0-45.254l208-208c12.498-12.5 32.758-12.5 45.256-0.002z" />
<glyph unicode="&#xe963;" glyph-name="check" d="M347.796 145.192l-332.8 332.8c-19.994 19.994-19.994 52.412 0 72.408l72.406 72.408c19.994 19.996 52.414 19.996 72.408 0l224.19-224.188 480.19 480.188c19.994 19.994 52.414 19.994 72.408 0l72.406-72.408c19.994-19.994 19.994-52.412 0-72.408l-588.8-588.802c-19.996-19.994-52.414-19.994-72.408 0.002z" />
<glyph unicode="&#xe964;" glyph-name="chess-bishop2" horiz-adv-x="640" d="M246.316 868.238c-31.578 10.702-54.316 40.568-54.316 75.762 0 44.182 35.818 80 80 80h95.592c44.182 0 80-35.818 80-80 0-35.082-22.59-64.868-54.010-75.658 47.986-33.314 97.154-93.678 137.406-164.1l-241.13-241.128c-2.171-2.172-3.514-5.171-3.514-8.485s1.343-6.313 3.514-8.485l28.284-28.284c2.172-2.171 5.171-3.514 8.485-3.514s6.313 1.343 8.485 3.514l226.688 226.688c35.516-76.594 58.742-158.886 58.742-228.546 0-107.572-45.794-151.576-116.892-172.066v-115.936h-367.302v115.94c-71.086 20.492-116.87 64.498-116.87 172.060 0 156.058 116.562 375.532 226.838 452.238zM640 24v48c0 13.254-10.746 24-24 24h-592c-13.254 0-24-10.746-24-24v-48c0-13.254 10.746-24 24-24h592c13.254 0 24 10.746 24 24z" />
<glyph unicode="&#xe965;" glyph-name="chess-board" d="M512 512v-128h-128v128h128zM512 1024h-128v-128h128v128zM512 512h128v128h-128v-128zM768 1024h-128v-128h128v128zM768 0h128v128h-128v-128zM1024 128v128h-128v-128h128zM256 0h128v128h-128v-128zM256 1024h-128v-128h128v128zM1024 640v128h-128v-128h128zM1024 384v128h-128v-128h128zM0 0h128v128h-128v-128zM0 896v-128h128v128h-128zM0 640v-128h128v128h-128zM0 384v-128h128v128h-128zM512 0h128v128h-128v-128zM384 256v-128h128v128h-128zM512 640v128h-128v-128h128zM128 256v-128h128v128h-128zM256 512h-128v-128h128v128zM768 256h128v128h-128v-128zM1024 1024h-128v-128h128v128zM768 512h128v128h-128v-128zM768 896v-128h128v128h-128zM640 256v-128h128v128h-128zM256 384v-128h128v128h-128zM512 384v-128h128v128h-128zM384 640h-128v-128h128v128zM256 768h-128v-128h128v128zM640 384h128v128h-128v-128zM384 768v128h-128v-128h128zM640 768v128h-128v-128h128zM640 640h128v128h-128v-128z" />
<glyph unicode="&#xe966;" glyph-name="chess-king2" horiz-adv-x="896" d="M832 72v-48c0-13.254-10.746-24-24-24h-720c-13.254 0-24 10.746-24 24v48c0 13.254 10.746 24 24 24h720c13.254 0 24-10.746 24-24zM815.934 720h-319.934v96h100c6.627 0 12 5.373 12 12v0 72c0 6.627-5.373 12-12 12v0h-100v100c0 6.627-5.373 12-12 12v0h-72c-6.627 0-12-5.373-12-12v0-100h-100c-6.627 0-12-5.373-12-12v0-72c0-6.627 5.373-12 12-12v0h100v-96h-319.934c-55.148 0-93.758-54.488-75.476-106.518l170.574-485.482h545.672l170.574 485.482c18.282 52.030-20.328 106.518-75.476 106.518z" />
<glyph unicode="&#xe967;" glyph-name="chess-knight2" horiz-adv-x="768" d="M704 576v-448h-640v93.114c0 60.604 34.24 116.006 88.446 143.108l114.486 57.244c31.715 16.112 53.068 48.495 53.068 85.865 0 0 0 0 0 0.001v0 100.668l-44.254-22.126c-12.409-6.301-21.569-17.486-25.028-30.957l-0.072-0.333-23.67-94.676c-1.933-7.551-7.256-13.562-14.21-16.404l-0.16-0.058-59.202-23.68c-2.639-1.086-5.702-1.717-8.913-1.717-3.529 0-6.88 0.762-9.898 2.13l0.151-0.061-120.492 53.548c-8.467 3.831-14.252 12.206-14.252 21.931 0 0 0 0.001 0 0.001v0 316.52c0 12.73 5.058 24.94 14.060 33.942l17.94 17.94-28.422 56.844c-2.256 4.414-3.578 9.629-3.578 15.153 0 0.001 0 0.002 0 0.004v0c0 13.254 10.746 24 24 24h296c212.078 0 384-171.922 384-384zM744 96h-720c-13.254 0-24-10.746-24-24v-48c0-13.254 10.746-24 24-24h720c13.254 0 24 10.746 24 24v48c0 13.254-10.746 24-24 24zM104 768c-22.092 0-40-17.908-40-40s17.908-40 40-40 40 17.908 40 40-17.908 40-40 40z" />
<glyph unicode="&#xe968;" glyph-name="chess-pawn2" horiz-adv-x="640" d="M528 128h-416s120 85.486 120 352h-64c-13.254 0-24 10.746-24 24v48c0 13.254 10.746 24 24 24h80.418c-56.976 26.88-96.418 84.824-96.418 152 0 92.784 75.216 168 168 168s168-75.216 168-168c0-67.176-39.442-125.12-96.418-152h80.418c13.254 0 24-10.746 24-24v-48c0-13.254-10.746-24-24-24h-64c0-266.514 120-352 120-352zM584 96h-528c-13.254 0-24-10.746-24-24v-48c0-13.254 10.746-24 24-24h528c13.254 0 24 10.746 24 24v48c0 13.254-10.746 24-24 24z" />
<glyph unicode="&#xe969;" glyph-name="chess-queen2" d="M872 0h-720c-13.254 0-24 10.746-24 24v48c0 13.254 10.746 24 24 24h720c13.254 0 24-10.746 24-24v-48c0-13.254-10.746-24-24-24zM511.158 1024c-61.856 0-112-50.144-112-112s50.144-112 112-112 112 50.144 112 112-50.144 112-112 112zM920.294 714.732c-11.536 6.090-25.832 1.864-32.164-9.54-17.232-31.032-45.494-75.602-88.13-75.602-57.428 0-61.25 39.608-63.372 115.084-0.366 12.984-11.002 23.328-23.99 23.328h-82.012c-10.35 0-19.508-6.656-22.776-16.476-17.78-53.418-52.146-81.984-95.85-81.984s-78.068 28.566-95.85 81.984c-3.268 9.82-12.426 16.476-22.776 16.476h-82.010c-12.99 0-23.626-10.348-23.99-23.334-2.104-75.284-5.868-115.078-63.376-115.078-41.382 0-67.634 40.448-88.85 76.050-6.532 10.96-20.516 14.862-31.798 8.906l-78.358-41.358c-7.669-4.109-12.798-12.068-12.798-21.225 0-3.268 0.653-6.384 1.836-9.224l-0.059 0.159 210.028-514.898h576l210.028 514.896c1.124 2.681 1.778 5.797 1.778 9.065 0 9.157-5.128 17.116-12.669 21.162l-0.128 0.063-78.714 41.546z" />
<glyph unicode="&#xe96a;" glyph-name="chess-rook2" horiz-adv-x="768" d="M162.482 593.946c-0.568-87.786-7.66-266.098-66.482-465.946h575.964c-58.8 199.208-65.872 377.824-66.442 465.95l90.836 84.624c4.706 4.393 7.64 10.633 7.64 17.558 0 0.001 0 0.001 0 0.002v0 239.866c0 13.254-10.746 24-24 24h-80c-13.254 0-24-10.746-24-24v-88h-96v88c0 13.254-10.746 24-24 24h-144c-13.254 0-24-10.746-24-24v-88h-95.998v88c0 13.254-10.746 24-24 24h-80c-13.254 0-24-10.746-24-24v-239.864c0-6.66 2.768-13.020 7.64-17.56l90.842-84.63zM320 512c0 35.346 28.654 64 64 64s64-28.654 64-64v-128.008h-128v128.008zM768 72v-48c0-13.254-10.746-24-24-24h-720c-13.254 0-24 10.746-24 24v48c0 13.254 10.746 24 24 24h720c13.254 0 24-10.746 24-24z" />
<glyph unicode="&#xe96b;" glyph-name="chess2" d="M399.642 588.734c6.627 0 12-5.373 12-12v0l-0.002-41.532c0-6.627-5.373-12-12-12v0h-51.61c0-63.43-4.306-192.402 34.796-306.458h-253.632c39.886 116.352 34.846 248.766 34.846 306.458h-51.674c-6.627 0-12 5.373-12 12v0l0.004 41.532c0 6.627 5.373 12 12 12v0h287.272zM83.108 793.824l69.16-190.142h207.468l69.144 190.144c5.692 15.652-5.9 32.202-22.556 32.202h-102.324v60.44h43.14c6.627 0 12 5.373 12 12v0 44.766c0 6.627-5.373 12-12 12v0h-56.734v56.766c0 6.627-5.373 12-12 12v0h-44.766c-6.627 0-12-5.373-12-12v0-56.766h-56.798c-6.627 0-12-5.373-12-12v0-44.766c0-6.627 5.373-12 12-12v0h43.158v-60.438h-102.338c-16.656-0.002-28.248-16.552-22.554-32.206zM445.356 133.66v56.134c0 6.627-5.373 12-12 12v0h-354.712c-6.627 0-12-5.373-12-12v0-56.134l-44.296-28.328c-3.349-2.166-5.534-5.882-5.534-10.109 0 0 0-0.001 0-0.001v0-83.222c0-6.627 5.373-12 12-12v0h454.374c6.627 0 12 5.373 12 12v0 83.224c0 0 0 0.001 0 0.001 0 4.227-2.185 7.943-5.487 10.080l-0.047 0.028-44.298 28.326zM626.512 422.11l49.76-33.926c0.18-36.248-0.334-127.808-23.81-229.044h295.052c-23.426 100.95-23.938 192.648-23.764 229.074l49.718 33.898c2.045 1.408 3.368 3.735 3.368 6.372 0 0.001 0 0.001 0 0.002v0 139.802c0 4.26-3.454 7.714-7.714 7.714v0h-55.31c-4.26 0-7.714-3.454-7.714-7.714v0-63.028h-45.474v63.028c0 4.26-3.454 7.714-7.714 7.714-0.001 0-0.001 0-0.002 0h-105.836c-4.26 0-7.714-3.454-7.714-7.714v0-63.028h-45.474v63.028c0 4.26-3.454 7.714-7.714 7.714v0h-55.31c-4.26 0-7.714-3.454-7.714-7.714v0-139.802c0-0.002 0-0.004 0-0.006 0-2.636 1.322-4.962 3.34-6.353l0.026-0.017zM769.682 318.298c0 16.744 13.574 30.316 30.318 30.316s30.316-13.574 30.316-30.316v-60.636h-60.634v60.636zM1009.24 83.882l-27.328 21.278v31.104c0 4.26-3.454 7.714-7.714 7.714v0h-348.368c-4.26 0-7.714-3.454-7.714-7.714v0-31.104l-27.354-21.278c-1.818-1.425-2.976-3.621-2.976-6.087 0 0 0 0 0-0.001v0-70.078c0-4.26 3.454-7.714 7.714-7.714v0h409c4.26 0 7.714 3.454 7.714 7.714v70.080c-0.001 2.466-1.157 4.661-2.957 6.073l-0.017 0.013z" />
<glyph unicode="&#xe96c;" glyph-name="chevron-circle-down" d="M1008 512c0-274-222-496-496-496s-496 222-496 496 222 496 496 496 496-222 496-496zM546 284.2l271 271c18.8 18.8 18.8 49.2 0 67.8l-34 34c-18.8 18.8-49.2 18.8-67.8 0l-203.2-203.2-203.2 203.2c-18.8 18.8-49.2 18.8-67.8 0l-34-34c-18.8-18.8-18.8-49.2 0-67.8l271-271c18.8-18.8 49.2-18.8 68 0z" />
<glyph unicode="&#xe96d;" glyph-name="chevron-circle-left" d="M512 16c-274 0-496 222-496 496s222 496 496 496 496-222 496-496-222-496-496-496zM284.2 478l271-271c18.8-18.8 49.2-18.8 67.8 0l34 34c18.8 18.8 18.8 49.2 0 67.8l-203.2 203.2 203.2 203.2c18.8 18.8 18.8 49.2 0 67.8l-34 34c-18.8 18.8-49.2 18.8-67.8 0l-271-271c-18.8-18.8-18.8-49.2 0-68z" />
<glyph unicode="&#xe96e;" glyph-name="chevron-circle-right" d="M512 1008c274 0 496-222 496-496s-222-496-496-496-496 222-496 496 222 496 496 496zM739.8 546l-271 271c-18.8 18.8-49.2 18.8-67.8 0l-34-34c-18.8-18.8-18.8-49.2 0-67.8l203.2-203.2-203.2-203.2c-18.8-18.8-18.8-49.2 0-67.8l34-34c18.8-18.8 49.2-18.8 67.8 0l271 271c18.8 18.8 18.8 49.2 0 68z" />
<glyph unicode="&#xe96f;" glyph-name="chevron-circle-up" d="M16 512c0 274 222 496 496 496s496-222 496-496-222-496-496-496-496 222-496 496zM478 739.8l-271-271c-18.8-18.8-18.8-49.2 0-67.8l34-34c18.8-18.8 49.2-18.8 67.8 0l203.2 203.2 203.2-203.2c18.8-18.8 49.2-18.8 67.8 0l34 34c18.8 18.8 18.8 49.2 0 67.8l-271 271c-18.8 18.8-49.2 18.8-68 0z" />
<glyph unicode="&#xe970;" glyph-name="chevron-down" horiz-adv-x="896" d="M414.058 261.048l-388.686 388.688c-18.746 18.746-18.746 49.138 0 67.882l45.334 45.334c18.714 18.714 49.044 18.75 67.802 0.080l309.492-308.042 309.49 308.042c18.758 18.67 49.088 18.634 67.802-0.080l45.334-45.334c18.746-18.746 18.746-49.138 0-67.882l-388.684-388.688c-18.746-18.744-49.138-18.744-67.884 0z" />
<glyph unicode="&#xe971;" glyph-name="chevron-left" horiz-adv-x="640" d="M69.040 545.94l388.7 388.68c18.74 18.74 49.14 18.74 67.88 0l45.34-45.34c18.72-18.72 18.74-49.040 0.080-67.8l-308.060-309.48 308.040-309.5c18.68-18.76 18.64-49.080-0.080-67.8l-45.34-45.34c-18.74-18.74-49.14-18.74-67.88 0l-388.68 388.7c-18.74 18.74-18.74 49.14 0 67.88z" />
<glyph unicode="&#xe972;" glyph-name="chevron-right" horiz-adv-x="640" d="M570.952 478.058l-388.688-388.686c-18.746-18.746-49.138-18.746-67.882 0l-45.334 45.334c-18.714 18.714-18.75 49.044-0.080 67.802l308.042 309.492-308.042 309.49c-18.67 18.758-18.634 49.088 0.080 67.802l45.334 45.334c18.746 18.746 49.138 18.746 67.882 0l388.686-388.686c18.746-18.744 18.746-49.136 0.002-67.882z" />
<glyph unicode="&#xe973;" glyph-name="chevron-up" horiz-adv-x="896" d="M481.942 762.952l388.686-388.686c18.746-18.746 18.746-49.138 0-67.882l-45.334-45.334c-18.714-18.714-49.044-18.75-67.802-0.080l-309.492 308.040-309.49-308.042c-18.758-18.67-49.088-18.634-67.802 0.080l-45.334 45.334c-18.746 18.746-18.746 49.138 0 67.882l388.686 388.686c18.744 18.746 49.136 18.746 67.882 0.002z" />
<glyph unicode="&#xe974;" glyph-name="child" horiz-adv-x="768" d="M240 880c0 79.53 64.47 144 144 144s144-64.47 144-144c0-79.528-64.47-144-144-144s-144 64.472-144 144zM749.254 877.254c-24.992 24.994-65.516 24.994-90.508 0l-173.256-173.254h-202.982l-173.254 173.254c-24.992 24.994-65.516 24.994-90.508 0-24.994-24.994-24.994-65.516 0-90.51l189.254-189.252v-533.492c0-35.346 28.654-64 64-64h32c35.346 0 64 28.654 64 64v224h32v-224c0-35.346 28.654-64 64-64h32c35.346 0 64 28.654 64 64v533.492l189.254 189.254c24.994 24.994 24.994 65.514 0 90.508z" />
<glyph unicode="&#xe975;" glyph-name="circle-notch" d="M576 945.888v-33.318c0-21.608 14.562-40.318 35.372-46.132 155.036-43.306 268.628-185.474 268.628-354.438 0-203.378-164.59-368-368-368-203.378 0-368 164.59-368 368 0 168.94 113.572 311.128 268.624 354.438 20.814 5.814 35.376 24.528 35.376 46.138v33.296c0 31.418-29.668 54.306-60.092 46.468-214.702-55.304-373.12-250.752-371.902-483.004 1.44-274.104 222.954-493.912 497.062-493.334 273.442 0.576 494.932 222.422 494.932 495.998 0 231.266-158.28 425.558-372.422 480.472-30.222 7.75-59.578-15.384-59.578-46.584z" />
<glyph unicode="&#xe976;" glyph-name="circle3" d="M512 1008c-274 0-496-222-496-496s222-496 496-496 496 222 496 496-222 496-496 496z" />
<glyph unicode="&#xe977;" glyph-name="clipboard7" horiz-adv-x="768" d="M768 800v-704c0-53.020-42.98-96-96-96h-576c-53.020 0-96 42.98-96 96v704c0 53.020 42.98 96 96 96h160c0 70.58 57.42 128 128 128s128-57.42 128-128h160c53.020 0 96-42.98 96-96zM384 944c-26.51 0-48-21.49-48-48s21.49-48 48-48 48 21.49 48 48-21.49 48-48 48zM576 716v40c0 6.627-5.373 12-12 12v0h-360c-6.627 0-12-5.373-12-12v0-40c0-6.627 5.373-12 12-12v0h360c6.627 0 12 5.373 12 12v0z" />
<glyph unicode="&#xe978;" glyph-name="clock5" d="M512 1008c-274 0-496-222-496-496s222-496 496-496 496 222 496 496-222 496-496 496zM626.2 307.8l-176.4 128.2c-6.2 4.6-9.8 11.8-9.8 19.4v336.6c0 13.2 10.8 24 24 24h96c13.2 0 24-10.8 24-24v-275.4l127-92.4c10.8-7.8 13-22.8 5.2-33.6l-56.4-77.6c-7.8-10.6-22.8-13-33.6-5.2z" />
<glyph unicode="&#xe979;" glyph-name="clone" d="M928 1024c53.020 0 96-42.98 96-96v-576c0-53.020-42.98-96-96-96h-576c-53.020 0-96 42.98-96 96v576c0 53.020 42.98 96 96 96h576zM352 192c-88.224 0-160 71.776-160 160v416h-96c-53.020 0-96-42.98-96-96v-576c0-53.020 42.98-96 96-96h576c53.020 0 96 42.98 96 96v96h-416z" />
<glyph unicode="&#xe97a;" glyph-name="closed-captioning" d="M928 896h-832c-53 0-96-43-96-96v-576c0-53 43-96 96-96h832c53 0 96 43 96 96v576c0 53-43 96-96 96zM436.2 448.6c5.6 5 14.2 4.2 18.4-1.8l39-55.4c3.4-4.8 3-11.2-1-15.4-107.2-113.6-345.6-64.2-345.6 135.8 0 194.6 243.4 239 345 140.2 4.2-4 5-6.4 2-11.4l-35-61c-3.8-6.2-12.4-8-18.2-3.4-81.6 64-189.2 29.8-189.2-62.4 0.2-96 102.2-141 184.6-65.2zM817 448.6c5.6 5 14.2 4.2 18.4-1.8l39-55.4c3.4-4.8 3-11.2-1-15.4-107-113.8-345.4-64.2-345.4 135.8 0 194.6 243.4 239 345 140.2 4.2-4 5-6.4 2-11.4l-35-61c-3.8-6.2-12.4-8-18.2-3.4-81.6 64-189.2 29.8-189.2-62.4 0-96 102-141 184.4-65.2z" />
<glyph unicode="&#xe97b;" glyph-name="cloud-download-alt" horiz-adv-x="1280" d="M1280 320c0-141.384-114.616-256-256-256h-736c-159.058 0-288 128.942-288 288 0 125.546 80.342 232.31 192.408 271.734-0.259 4.854-0.407 10.541-0.408 16.262v0.004c0 176.732 143.268 320 320 320 118.576 0 222.084-64.496 277.368-160.318 30.502 20.41 67.174 32.318 106.632 32.318 106.038 0 192-85.962 192-192 0-24.368-4.55-47.672-12.83-69.12 116.864-23.708 204.83-127.020 204.83-250.88zM786.746 448h-130.746v224c0 17.674-14.328 32-32 32h-96c-17.672 0-32-14.326-32-32v-224h-130.746c-28.508 0-42.786-34.468-22.628-54.628l210.746-210.746c12.496-12.496 32.758-12.496 45.254 0l210.746 210.746c20.16 20.16 5.882 54.628-22.626 54.628z" />
<glyph unicode="&#xe97c;" glyph-name="cloud-upload-alt" horiz-adv-x="1280" d="M1280 320c0-141.384-114.616-256-256-256h-736c-159.058 0-288 128.942-288 288 0 125.546 80.342 232.31 192.408 271.734-0.259 4.854-0.407 10.541-0.408 16.262v0.004c0 176.732 143.268 320 320 320 118.576 0 222.084-64.496 277.368-160.318 30.502 20.41 67.174 32.318 106.632 32.318 106.038 0 192-85.962 192-192 0-24.368-4.55-47.672-12.83-69.12 116.864-23.708 204.83-127.020 204.83-250.88zM809.372 502.628l-210.744 210.744c-12.496 12.496-32.758 12.496-45.254 0l-210.746-210.744c-20.16-20.16-5.882-54.628 22.626-54.628h130.746v-224c0-17.674 14.328-32 32-32h96c17.672 0 32 14.326 32 32v224h130.746c28.508 0 42.786 34.468 22.626 54.628z" />
<glyph unicode="&#xe97d;" glyph-name="cloud3" horiz-adv-x="1280" d="M1075.17 570.88c8.28 21.448 12.83 44.752 12.83 69.12 0 106.038-85.962 192-192 192-39.458 0-76.13-11.908-106.632-32.318-55.284 95.822-158.792 160.318-277.368 160.318-176.732 0-320-143.268-320-320 0-5.456 0.14-10.878 0.408-16.266-112.066-39.424-192.408-146.188-192.408-271.734 0-159.058 128.942-288 288-288h736c141.384 0 256 114.616 256 256 0 123.86-87.966 227.172-204.83 250.88z" />
<glyph unicode="&#xe97e;" glyph-name="code-branch" horiz-adv-x="768" d="M768 736c0 88.4-71.6 160-160 160s-160-71.6-160-160c0-72.8 48.6-134.2 115-153.6-1.2-32.2-8.4-57-22-73.8-30.8-38.4-98.6-44.8-170.4-51.4-56.4-5.2-114.8-10.8-162.6-33.8v288c65 20.4 112 81 112 152.6 0 88.4-71.6 160-160 160s-160-71.6-160-160c0-71.6 47-132.2 112-152.6v-398.6c-65-20.6-112-81.2-112-152.8 0-88.4 71.6-160 160-160s160 71.6 160 160c0 68-42.4 126.2-102.4 149.2 6.2 10.4 15.6 19.6 29.8 26.8 32.4 16.4 80.8 20.8 132.2 25.6 84.4 7.8 180 16.8 236.4 86.8 28 34.8 42.2 79.6 43.2 135.8 63.2 21.6 108.8 81.4 108.8 151.8zM160 896c17.6 0 32-14.4 32-32s-14.4-32-32-32-32 14.4-32 32 14.4 32 32 32zM160 128c-17.6 0-32 14.4-32 32s14.4 32 32 32 32-14.4 32-32-14.4-32-32-32zM608 768c17.6 0 32-14.4 32-32s-14.4-32-32-32-32 14.4-32 32 14.4 32 32 32z" />
<glyph unicode="&#xe97f;" glyph-name="code2" horiz-adv-x="1280" d="M557.8 1l-122 35.4c-12.8 3.6-20 17-16.4 29.8l273 940.4c3.6 12.8 17 20 29.8 16.4l122-35.4c12.8-3.6 20-17 16.4-29.8l-273-940.4c-3.8-12.8-17-20.2-29.8-16.4zM329.8 225.4l87 92.8c9.2 9.8 8.6 25.4-1.6 34.4l-181.2 159.4 181.2 159.4c10.2 9 11 24.6 1.6 34.4l-87 92.8c-9 9.6-24.2 10.2-34 1l-288.2-270c-10.2-9.4-10.2-25.6 0-35l288.2-270.2c9.8-9.2 25-8.8 34 1zM984.2 224.2l288.2 270.2c10.2 9.4 10.2 25.6 0 35l-288.2 270.4c-9.6 9-24.8 8.6-34-1l-87-92.8c-9.2-9.8-8.6-25.4 1.6-34.4l181.2-159.6-181.2-159.4c-10.2-9-11-24.6-1.6-34.4l87-92.8c9-9.8 24.2-10.2 34-1.2z" />
<glyph unicode="&#xe980;" glyph-name="coffee2" horiz-adv-x="1280" d="M384 256h384c106 0 192 86 192 192h64c141.2 0 256 114.8 256 256s-114.8 256-256 256h-784c-26.6 0-48-21.4-48-48v-464c0-106 86-192 192-192zM1024 832c70.6 0 128-57.4 128-128s-57.4-128-128-128h-64v256h64zM1119.4 64h-1022.8c-95.2 0-122 128-72 128h1166.6c50 0 23.6-128-71.8-128z" />
<glyph unicode="&#xe981;" glyph-name="cog8" d="M889.576 441.8l85.232-49.198c9.734-5.618 14.252-17.236 10.918-27.97-22.14-71.284-59.94-135.684-109.378-189.172-4.404-4.757-10.682-7.725-17.653-7.725-4.422 0-8.566 1.194-12.125 3.278l0.113-0.061-85.168 49.19c-34.381-29.597-74.73-53.442-118.85-69.416l-2.668-0.844v-98.364c0 0 0 0 0 0 0-11.399-7.941-20.944-18.592-23.404l-0.162-0.031c-69.912-15.7-144.998-16.512-218.438-0.014-10.98 2.466-18.806 12.192-18.806 23.446v98.368c-46.788 16.817-87.138 40.662-122.021 70.683l0.503-0.423-85.168-49.19c-3.446-2.022-7.589-3.217-12.011-3.217-6.971 0-13.249 2.968-17.638 7.709l-0.014 0.016c-49.436 53.488-87.238 117.888-109.378 189.172-3.334 10.732 1.184 22.35 10.918 27.97l85.234 49.198c-4.084 21.107-6.421 45.38-6.421 70.199s2.337 49.092 6.802 72.612l-0.381-2.413-85.232 49.198c-9.734 5.618-14.252 17.236-10.918 27.97 22.14 71.284 59.94 135.684 109.378 189.172 4.404 4.757 10.682 7.725 17.653 7.725 4.422 0 8.566-1.194 12.125-3.278l-0.113 0.061 85.168-49.19c34.381 29.597 74.73 53.442 118.85 69.416l2.668 0.844v98.366c0 0 0 0 0 0 0 11.399 7.941 20.944 18.592 23.404l0.162 0.031c69.912 15.7 144.998 16.512 218.438 0.014 10.98-2.466 18.806-12.192 18.806-23.446v-98.368c46.788-16.817 87.138-40.662 122.021-70.683l-0.503 0.423 85.168 49.19c3.446 2.022 7.589 3.217 12.011 3.217 6.971 0 13.249-2.968 17.638-7.709l0.014-0.016c49.436-53.488 87.238-117.888 109.378-189.172 3.334-10.732-1.184-22.35-10.918-27.97l-85.234-49.198c4.084-21.107 6.421-45.38 6.421-70.2s-2.337-49.093-6.802-72.613l0.381 2.413zM672 512c0 88.224-71.776 160-160 160s-160-71.776-160-160 71.776-160 160-160 160 71.776 160 160z" />
<glyph unicode="&#xe982;" glyph-name="cogs2" horiz-adv-x="1280" d="M1024.2 642l-16.4-28.6c-6-10.6-18.8-15-30.2-10.8-23.6 8.8-45.2 21.4-64.2 37.2-9.2 7.6-11.6 21-5.6 31.4l16.4 28.6c-13.8 16-24.6 34.6-31.8 54.8h-33c-12 0-22.4 8.6-24.4 20.6-4 24-4.2 49.2 0 74.2 2 12 12.4 20.8 24.4 20.8h33c7.2 20.2 18 38.8 31.8 54.8l-16.4 28.6c-6 10.4-3.8 23.8 5.6 31.4 19 15.8 40.8 28.4 64.2 37.2 11.4 4.2 24.2-0.2 30.2-10.8l16.4-28.6c21 3.8 42.4 3.8 63.4 0l16.4 28.6c6 10.6 18.8 15 30.2 10.8 23.6-8.8 45.2-21.4 64.2-37.2 9.2-7.6 11.6-21 5.6-31.4l-16.4-28.6c13.8-16 24.6-34.6 31.8-54.8h33c12 0 22.4-8.6 24.4-20.6 4-24 4.2-49.2 0-74.2-2-12-12.4-20.8-24.4-20.8h-33c-7.2-20.2-18-38.8-31.8-54.8l16.4-28.6c6-10.4 3.8-23.8-5.6-31.4-19-15.8-40.8-28.4-64.2-37.2-11.4-4.2-24.2 0.2-30.2 10.8l-16.4 28.6c-20.8-3.8-42.4-3.8-63.4 0zM1003.2 759.6c77-59.2 164.8 28.6 105.6 105.6-77 59.4-164.8-28.6-105.6-105.6zM772.6 451.8l67.4-33.6c20.2-11.6 29-36.2 21-58.2-17.8-48.4-52.8-92.8-85.2-131.6-14.8-17.8-40.4-22.2-60.6-10.6l-58.2 33.6c-32-27.4-69.2-49.2-109.8-63.4v-67.2c0-23.2-16.6-43.2-39.4-47.2-49.2-8.4-100.8-8.8-151.8 0-23 4-40 23.8-40 47.2v67.2c-40.6 14.4-77.8 36-109.8 63.4l-58.2-33.4c-20-11.6-45.8-7.2-60.6 10.6-32.4 38.8-66.6 83.2-84.4 131.4-8 21.8 0.8 46.4 21 58.2l66.6 33.6c-7.8 41.8-7.8 84.8 0 126.8l-66.6 33.8c-20.2 11.6-29.2 36.2-21 58 17.8 48.4 52 92.8 84.4 131.6 14.8 17.8 40.4 22.2 60.6 10.6l58.2-33.6c32 27.4 69.2 49.2 109.8 63.4v67.4c0 23 16.4 43 39.2 47 49.2 8.4 101 8.8 152 0.2 23-4 40-23.8 40-47.2v-67.2c40.6-14.4 77.8-36 109.8-63.4l58.2 33.6c20 11.6 45.8 7.2 60.6-10.6 32.4-38.8 66.4-83.2 84.2-131.6 8-21.8 0.2-46.4-20-58.2l-67.4-33.6c7.8-42 7.8-85 0-127zM537.4 409.6c118.4 154-57.4 329.8-211.4 211.4-118.4-154 57.4-329.8 211.4-211.4zM1024.2 44.2l-16.4-28.6c-6-10.6-18.8-15-30.2-10.8-23.6 8.8-45.2 21.4-64.2 37.2-9.2 7.6-11.6 21-5.6 31.4l16.4 28.6c-13.8 16-24.6 34.6-31.8 54.8h-33c-12 0-22.4 8.6-24.4 20.6-4 24-4.2 49.2 0 74.2 2 12 12.4 20.8 24.4 20.8h33c7.2 20.2 18 38.8 31.8 54.8l-16.4 28.6c-6 10.4-3.8 23.8 5.6 31.4 19 15.8 40.8 28.4 64.2 37.2 11.4 4.2 24.2-0.2 30.2-10.8l16.4-28.6c21 3.8 42.4 3.8 63.4 0l16.4 28.6c6 10.6 18.8 15 30.2 10.8 23.6-8.8 45.2-21.4 64.2-37.2 9.2-7.6 11.6-21 5.6-31.4l-16.4-28.6c13.8-16 24.6-34.6 31.8-54.8h33c12 0 22.4-8.6 24.4-20.6 4-24 4.2-49.2 0-74.2-2-12-12.4-20.8-24.4-20.8h-33c-7.2-20.2-18-38.8-31.8-54.8l16.4-28.6c6-10.4 3.8-23.8-5.6-31.4-19-15.8-40.8-28.4-64.2-37.2-11.4-4.2-24.2 0.2-30.2 10.8l-16.4 28.6c-20.8-3.8-42.4-3.8-63.4 0zM1003.2 162c77-59.2 164.8 28.6 105.6 105.6-77 59.2-164.8-28.6-105.6-105.6z" />
<glyph unicode="&#xe983;" glyph-name="columns" d="M928 960h-832c-53.020 0-96-42.98-96-96v-704c0-53.020 42.98-96 96-96h832c53.020 0 96 42.98 96 96v704c0 53.020-42.98 96-96 96zM448 192h-320v512h320v-512zM896 192h-320v512h320v-512z" />
<glyph unicode="&#xe984;" glyph-name="comment-alt" horiz-adv-x="1152" d="M1152 544c0-230-258-416-576-416-96.6 0-187.8 17.2-267.8 47.6-80.6-62.4-179.6-100.6-284.8-111.4-10.4-1.2-20.4 5.6-23 15.4-2.6 10 5.4 16.2 13.2 23.6 38.6 36.8 85.4 65.6 103.8 189.2-73.6 69.8-117.4 157-117.4 251.6 0 229.8 258 416 576 416s576-186.2 576-416zM320 640c-53 0-96-43-96-96s43-96 96-96 96 43 96 96-43 96-96 96zM576 640c-53 0-96-43-96-96s43-96 96-96 96 43 96 96-43 96-96 96zM832 640c-53 0-96-43-96-96s43-96 96-96 96 43 96 96-43 96-96 96z" />
<glyph unicode="&#xe985;" glyph-name="comment" horiz-adv-x="1152" d="M1152 544c0-230-258-416-576-416-96.6 0-187.8 17.2-267.8 47.6-80.6-62.4-179.6-100.6-284.8-111.4-10.4-1.2-20.4 5.6-23 15.4-2.6 10 5.4 16.2 13.2 23.6 38.6 36.8 85.4 65.6 103.8 189.2-73.6 69.8-117.4 157-117.4 251.6 0 229.8 258 416 576 416s576-186.2 576-416z" />
<glyph unicode="&#xe986;" glyph-name="comments" horiz-adv-x="1152" d="M448 306.286c-75.198 0-146.054 13.526-208.286 37.4-62.75-49.098-139.738-79.016-221.528-87.592-0.533-0.059-1.152-0.093-1.779-0.094h-0.001c-7.472 0-14.222 4.996-16.034 12.122-1.96 7.922 4.176 12.798 10.252 18.61 30.034 28.878 66.444 51.58 80.684 148.594-57.278 54.902-91.308 123.43-91.308 197.816 0 180.538 200.594 326.858 448 326.858s448-146.318 448-326.858c-0.002-180.664-200.594-326.856-448-326.856zM1142.134 91.938c-27.888 26.254-61.698 46.892-74.92 135.086 137.616 129.136 104.342 313.87-75.348 414.13 0.062-2.668 0.132-5.334 0.132-8.012 0-244.986-259.166-432.788-568.504-422.444 76.242-61.922 187.978-100.984 312.504-100.984 69.828 0 135.622 12.296 193.408 34 58.268-44.634 129.756-71.832 205.706-79.628 7.572-0.79 14.726 3.946 16.54 10.934 1.822 7.202-3.876 11.634-9.518 16.918z" />
<glyph unicode="&#xe987;" glyph-name="compass7" d="M1008 512c0-273.934-222.066-496-496-496s-496 222.066-496 496 222.066 496 496 496 496-222.066 496-496zM614.892 782.312l-205.284-195.558c-6.494-6.194-11.245-14.163-13.474-23.128l-0.070-0.33-66.718-275.558c-11.36-46.918 45.554-78.636 79.76-46.048l205.28 195.558c6.495 6.194 11.245 14.163 13.475 23.128l0.069 0.33 66.718 275.558c11.236 46.396-45.182 78.986-79.756 46.048zM512 576c-35.346 0-64-28.654-64-64s28.654-64 64-64 64 28.654 64 64-28.654 64-64 64z" />
<glyph unicode="&#xe988;" glyph-name="compress" horiz-adv-x="896" d="M872 640h-248c-26.6 0-48 21.4-48 48v248c0 13.2 10.8 24 24 24h80c13.2 0 24-10.8 24-24v-168h168c13.2 0 24-10.8 24-24v-80c0-13.2-10.8-24-24-24zM320 688v248c0 13.2-10.8 24-24 24h-80c-13.2 0-24-10.8-24-24v-168h-168c-13.2 0-24-10.8-24-24v-80c0-13.2 10.8-24 24-24h248c26.6 0 48 21.4 48 48zM320 88v248c0 26.6-21.4 48-48 48h-248c-13.2 0-24-10.8-24-24v-80c0-13.2 10.8-24 24-24h168v-168c0-13.2 10.8-24 24-24h80c13.2 0 24 10.8 24 24zM704 88v168h168c13.2 0 24 10.8 24 24v80c0 13.2-10.8 24-24 24h-248c-26.6 0-48-21.4-48-48v-248c0-13.2 10.8-24 24-24h80c13.2 0 24 10.8 24 24z" />
<glyph unicode="&#xe989;" glyph-name="copy5" horiz-adv-x="896" d="M640 128v-80c0-26.51-21.49-48-48-48h-544c-26.51 0-48 21.49-48 48v736c0 26.51 21.49 48 48 48h144v-592c0-61.758 50.242-112 112-112h336zM640 816v208h-336c-26.51 0-48-21.49-48-48v-736c0-26.51 21.49-48 48-48h544c26.51 0 48 21.49 48 48v528h-208c-26.4 0-48 21.6-48 48zM881.942 878.058l-131.884 131.884c-8.686 8.686-20.686 14.058-33.94 14.058h-12.118v-192h192v12.118c0 13.254-5.372 25.254-14.058 33.94v0z" />
<glyph unicode="&#xe98a;" glyph-name="copyright" d="M512 1008c-273.934 0-496-222.066-496-496s222.066-496 496-496 496 222.066 496 496-222.066 496-496 496zM746.268 314.494c-3.184-3.734-79.552-91.462-219.702-91.462-169.384 0-288.968 126.52-288.968 291.134 0 162.606 124.008 286.802 287.524 286.802 133.914 0 203.93-74.63 206.844-77.808 3.915-4.257 6.315-9.961 6.315-16.225 0-4.839-1.432-9.344-3.896-13.113l0.056 0.092-44.76-69.31c-8.098-12.534-25.548-14.702-36.468-4.59-0.466 0.428-53.058 47.76-123.76 47.76-92.232 0-147.832-67.15-147.832-152.164 0-79.204 51.028-159.384 148.554-159.384 77.394 0 130.56 56.676 131.088 57.25 10.264 11.13 28.118 10.066 37.016-2.106l49.094-67.144c2.89-3.916 4.626-8.838 4.626-14.166 0-5.955-2.169-11.404-5.759-15.599l0.027 0.033z" />
<glyph unicode="&#xe98b;" glyph-name="credit-card3" horiz-adv-x="1152" d="M0 160c0-53 43-96 96-96h960c53 0 96 43 96 96v352h-1152v-352zM384 296c0 13.2 10.8 24 24 24h272c13.2 0 24-10.8 24-24v-80c0-13.2-10.8-24-24-24h-272c-13.2 0-24 10.8-24 24v80zM128 296c0 13.2 10.8 24 24 24h144c13.2 0 24-10.8 24-24v-80c0-13.2-10.8-24-24-24h-144c-13.2 0-24 10.8-24 24v80zM1152 864v-96h-1152v96c0 53 43 96 96 96h960c53 0 96-43 96-96z" />
<glyph unicode="&#xe98c;" glyph-name="crop3" d="M976 320h-80v485.4l114 114c18.8 18.8 18.8 49.2 0 67.8l-22.6 22.8c-18.8 18.8-49.2 18.8-67.8 0l-114-114h-485.6v80c0 26.6-21.4 48-48 48h-96c-26.6 0-48-21.4-48-48v-80h-80c-26.6 0-48-21.4-48-48v-96c0-26.6 21.4-48 48-48h80v-528c0-26.6 21.4-48 48-48h528v-80c0-26.6 21.4-48 48-48h96c26.6 0 48 21.4 48 48v80h80c26.6 0 48 21.4 48 48v96c0 26.6-21.4 48-48 48zM613.4 704l-293.4-293.4v293.4h293.4zM410.6 320l293.4 293.4v-293.4h-293.4z" />
<glyph unicode="&#xe98d;" glyph-name="crosshairs" d="M1000 576h-60.728c-27.824 187.35-175.922 335.448-363.272 363.272v60.728c0 13.254-10.746 24-24 24h-80c-13.254 0-24-10.746-24-24v-60.728c-187.35-27.824-335.448-175.922-363.272-363.272h-60.728c-13.254 0-24-10.746-24-24v-80c0-13.254 10.746-24 24-24h60.728c27.824-187.35 175.922-335.448 363.272-363.272v-60.728c0-13.254 10.746-24 24-24h80c13.254 0 24 10.746 24 24v60.728c187.35 27.824 335.448 175.922 363.272 363.272h60.728c13.254 0 24 10.746 24 24v80c0 13.254-10.746 24-24 24zM576 214.732v81.268c0 13.254-10.746 24-24 24h-80c-13.254 0-24-10.746-24-24v-81.268c-116.348 24.804-208.434 116.782-233.268 233.268h81.268c13.254 0 24 10.746 24 24v80c0 13.254-10.746 24-24 24h-81.268c24.804 116.348 116.782 208.434 233.268 233.268v-81.268c0-13.254 10.746-24 24-24h80c13.254 0 24 10.746 24 24v81.268c116.348-24.804 208.434-116.782 233.268-233.268h-81.268c-13.254 0-24-10.746-24-24v-80c0-13.254 10.746-24 24-24h81.268c-24.804-116.348-116.782-208.434-233.268-233.268zM576 512c0-35.346-28.654-64-64-64s-64 28.654-64 64c0 35.346 28.654 64 64 64s64-28.654 64-64z" />
<glyph unicode="&#xe98e;" glyph-name="cube5" d="M478.2 1011.4l-416-156c-37.4-14-62.2-50-62.2-90v-450.2c0-36.4 20.6-69.6 53-85.8l416-208c27-13.6 58.8-13.6 85.8 0l416 208c32.6 16.2 53 49.6 53 85.8v450.2c0 40-24.8 75.8-62.2 89.8l-416 156c-21.6 8.4-45.6 8.4-67.4 0.2zM512 887.2l384-144v-2.2l-384-156-384 156v2.2l384 144zM576 175.2v297.8l320 130v-267.8l-320-160z" />
<glyph unicode="&#xe98f;" glyph-name="cubes" d="M977.2 523.6l-193.2 72.4v217c0 30-18.6 56.8-46.8 67.4l-200 75c-16.2 6.2-34.2 6.2-50.6 0l-200-75c-28.2-10.6-46.8-37.4-46.8-67.4v-217l-193.2-72.4c-28-10.6-46.6-37.4-46.6-67.4v-220.2c0-27.2 15.4-52.2 39.8-64.4l200-100c20.2-10.2 44.2-10.2 64.4 0l207.8 104 207.8-104c20.2-10.2 44.2-10.2 64.4 0l200 100c24.4 12.2 39.8 37.2 39.8 64.4v220.2c0 30-18.6 56.8-46.8 67.4zM716 594.4l-170-63.8v136.4l170 74v-146.6zM308 815.8l204 76.4 204-76.4v-1.2l-204-82.8-204 82.8v1.2zM476 233.6l-170-85v158.2l170 77.6v-150.8zM476 457.6l-204-82.8-204 82.8v1.2l204 76.4 204-76.4v-1.2zM956 233.6l-170-85v158.2l170 77.6v-150.8zM956 457.6l-204-82.8-204 82.8v1.2l204 76.4 204-76.4v-1.2z" />
<glyph unicode="&#xe990;" glyph-name="cut" horiz-adv-x="896" d="M888.97 179.148c9.378-9.378 9.368-24.574 0-33.942-65.608-65.608-171.982-65.608-237.59 0l-231.028 231.028-49.718-49.718c8.626-21.83 13.366-45.62 13.366-70.516 0-106.038-85.962-192-192-192s-192 85.962-192 192 85.962 192 192 192c9.072 0 17.99-0.644 26.726-1.86l65.86 65.86-65.86 65.86c-8.736-1.216-17.654-1.86-26.726-1.86-106.038 0-192 85.962-192 192s85.962 192 192 192 192-85.962 192-192c0-24.896-4.74-48.686-13.364-70.516l49.718-49.718 231.026 231.028c65.608 65.608 171.982 65.608 237.59 0 9.368-9.368 9.378-24.564 0-33.942l-332.852-332.852 332.852-332.852zM192 832c-35.29 0-64-28.71-64-64s28.71-64 64-64 64 28.71 64 64-28.71 64-64 64zM192 320c-35.29 0-64-28.71-64-64s28.71-64 64-64 64 28.71 64 64-28.71 64-64 64zM416 536c-13.254 0-24-10.746-24-24s10.746-24 24-24 24 10.746 24 24-10.746 24-24 24z" />
<glyph unicode="&#xe991;" glyph-name="database5" horiz-adv-x="896" d="M896 877.714v-91.428c0-80.572-200.666-146.286-448-146.286s-448 65.714-448 146.286v91.428c0 80.572 200.666 146.286 448 146.286s448-65.714 448-146.286zM896 672v-205.714c0-80.572-200.666-146.286-448-146.286s-448 65.714-448 146.286v205.714c96.25-66.286 272.416-97.144 448-97.144s351.748 30.858 448 97.144zM896 352v-205.714c0-80.572-200.666-146.286-448-146.286s-448 65.714-448 146.286v205.714c96.25-66.286 272.416-97.144 448-97.144s351.748 30.858 448 97.144z" />
<glyph unicode="&#xe992;" glyph-name="deaf" d="M432 504c0-30.928-25.072-56-56-56s-56 25.072-56 56c0 88.224 71.776 160 160 160s160-71.776 160-160c0-30.928-25.072-56-56-56s-56 25.072-56 56c0 26.468-21.534 48-48 48s-48-21.532-48-48zM480 856c-194.094 0-352-157.906-352-352 0-30.928 25.072-56 56-56s56 25.072 56 56c0 132.336 107.664 240 240 240s240-107.664 240-240c0-150.328-142.018-140.622-143.994-287.244l-0.006-0.756c0-57.346-46.654-104-104-104-30.928 0-56-25.072-56-56s25.072-56 56-56c118.95 0 215.752 96.656 216 215.548 1.19 68.856 144 96.48 144 288.452 0 194.094-157.906 352-352 352zM1016.97 960.402l-56.57 56.568c-9.374 9.372-24.568 9.372-33.942 0l-174.058-174.058c-9.372-9.372-9.372-24.568 0-33.942l56.57-56.57c9.372-9.372 24.568-9.372 33.94 0l174.060 174.058c9.374 9.376 9.374 24.572 0 33.944zM337.94 394.51c-9.372 9.372-24.568 9.372-33.94 0l-296.97-296.97c-9.372-9.372-9.372-24.568 0-33.942l56.57-56.568c9.374-9.372 24.568-9.372 33.942 0l296.97 296.97c9.372 9.372 9.372 24.568 0 33.942l-56.572 56.568z" />
<glyph unicode="&#xe993;" glyph-name="desktop" horiz-adv-x="1152" d="M1056 1024h-960c-53 0-96-43-96-96v-640c0-53 43-96 96-96h384l-32-96h-144c-26.6 0-48-21.4-48-48s21.4-48 48-48h544c26.6 0 48 21.4 48 48s-21.4 48-48 48h-144l-32 96h384c53 0 96 43 96 96v640c0 53-43 96-96 96zM1024 320h-896v576h896v-576z" />
<glyph unicode="&#xe994;" glyph-name="dollar-sign" horiz-adv-x="640" d="M226.822 685.25c0 46.674 43.072 76.834 109.73 76.834 53.452 0 108.232-24.526 152.922-56.666 11.76-8.458 28.26-4.708 35.15 8.034l47.104 87.098c5.298 9.796 3.192 21.982-5.15 29.36-48.562 42.954-118.27 68.18-182.578 75.612v94.478c0 13.254-10.746 24-24 24h-80c-13.254 0-24-10.746-24-24v-99.664c-117.254-26.58-194.598-111.834-194.598-217.278 0-247.066 369.53-221.62 369.53-338.828 0-39.646-32.622-82.316-104.248-82.316-61.502 0-125.864 31.76-175.696 71.774-10.62 8.528-26.164 6.63-34.318-4.28l-60.778-81.334c-7.254-9.708-6.15-23.314 2.604-31.694 48.098-46.040 118.498-82.51 197.502-95.946v-96.434c0-13.254 10.746-24 24-24h80c13.254 0 24 10.746 24 24v94.876c131.44 20.43 212.352 118.372 212.352 233.032 0.002 239.376-369.528 207.414-369.528 333.342z" />
<glyph unicode="&#xe995;" glyph-name="dot-circle" d="M512 1008c-273.934 0-496-222.066-496-496s222.066-496 496-496 496 222.066 496 496-222.066 496-496 496zM672 512c0-88.224-71.776-160-160-160s-160 71.776-160 160 71.776 160 160 160 160-71.776 160-160z" />
<glyph unicode="&#xe996;" glyph-name="download11" d="M432 1024h160c26.6 0 48-21.4 48-48v-336h175.4c35.6 0 53.4-43 28.2-68.2l-304.2-304.4c-15-15-39.6-15-54.6 0l-304.6 304.4c-25.2 25.2-7.4 68.2 28.2 68.2h175.6v336c0 26.6 21.4 48 48 48zM1024 272v-224c0-26.6-21.4-48-48-48h-928c-26.6 0-48 21.4-48 48v224c0 26.6 21.4 48 48 48h293.4l98-98c40.2-40.2 105-40.2 145.2 0l98 98h293.4c26.6 0 48-21.4 48-48zM776 96c0 22-18 40-40 40s-40-18-40-40 18-40 40-40 40 18 40 40zM904 96c0 22-18 40-40 40s-40-18-40-40 18-40 40-40 40 18 40 40z" />
<glyph unicode="&#xe997;" glyph-name="edit" horiz-adv-x="1152" d="M805.2 857.6l180.4-180.4c7.6-7.6 7.6-20 0-27.6l-436.8-436.8-185.6-20.6c-24.8-2.8-45.8 18.2-43 43l20.6 185.6 436.8 436.8c7.6 7.6 20 7.6 27.6 0zM1129.2 903.4l-97.6 97.6c-30.4 30.4-79.8 30.4-110.4 0l-70.8-70.8c-7.6-7.6-7.6-20 0-27.6l180.4-180.4c7.6-7.6 20-7.6 27.6 0l70.8 70.8c30.4 30.6 30.4 80 0 110.4zM768 331.6v-203.6h-640v640h459.6c6.4 0 12.4 2.6 17 7l80 80c15.2 15.2 4.4 41-17 41h-571.6c-53 0-96-43-96-96v-704c0-53 43-96 96-96h704c53 0 96 43 96 96v315.6c0 21.4-25.8 32-41 17l-80-80c-4.4-4.6-7-10.6-7-17z" />
<glyph unicode="&#xe998;" glyph-name="eject2" horiz-adv-x="896" d="M896 256v-128c0-35.346-28.654-64-64-64h-768c-35.346 0-64 28.654-64 64v128c0 35.346 28.654 64 64 64h768c35.346 0 64-28.654 64-64zM96.106 384h703.772c83.302 0 127.162 99.348 70.766 160.87l-351.878 384.014c-38.028 41.486-103.502 41.488-141.534 0l-351.892-384.014c-56.29-61.406-12.692-160.87 70.766-160.87z" />
<glyph unicode="&#xe999;" glyph-name="ellipsis-h" d="M656 512c0-79.6-64.4-144-144-144s-144 64.4-144 144 64.4 144 144 144 144-64.4 144-144zM864 656c-79.6 0-144-64.4-144-144s64.4-144 144-144 144 64.4 144 144-64.4 144-144 144zM160 656c-79.6 0-144-64.4-144-144s64.4-144 144-144 144 64.4 144 144-64.4 144-144 144z" />
<glyph unicode="&#xe99a;" glyph-name="ellipsis-v" horiz-adv-x="384" d="M192 656c79.6 0 144-64.4 144-144s-64.4-144-144-144-144 64.4-144 144 64.4 144 144 144zM48 864c0-79.6 64.4-144 144-144s144 64.4 144 144-64.4 144-144 144-144-64.4-144-144zM48 160c0-79.6 64.4-144 144-144s144 64.4 144 144-64.4 144-144 144-144-64.4-144-144z" />
<glyph unicode="&#xe99b;" glyph-name="envelope-open" d="M1024 96c0-53.020-42.98-96-96-96h-832c-53.020 0-96 42.98-96 96v526.552c0 30.578 14.297 57.817 36.571 75.397l0.203 0.155c49.826 39.058 91.002 70.73 328.4 243.022 33.65 24.534 100.42 83.568 146.826 82.868 46.396 0.708 113.192-58.344 146.826-82.866 237.374-172.274 278.606-203.99 328.4-243.024 22.477-17.735 36.774-44.974 36.774-75.552v0-526.552zM892.668 489.21c-5.126 7.456-15.4 9.19-22.678 3.814-45.69-33.746-110.924-81.41-211.164-154.158-33.65-24.532-100.42-83.562-146.826-82.86-46.422-0.688-113.118 58.286-146.826 82.86-100.228 72.74-165.468 120.408-211.164 154.158-7.278 5.376-17.552 3.642-22.678-3.814l-18.144-26.392c-1.763-2.534-2.817-5.677-2.817-9.065 0-5.257 2.536-9.923 6.452-12.838l0.043-0.030c45.774-33.798 110.908-81.38 210.606-153.736 40.548-29.562 113.048-95.626 184.528-95.146 71.448-0.484 143.922 65.542 184.526 95.146 99.7 72.358 164.836 119.94 210.606 153.736 3.958 2.946 6.495 7.611 6.495 12.869 0 3.389-1.054 6.531-2.851 9.118l0.035-0.053-18.142 26.392z" />
<glyph unicode="&#xe99c;" glyph-name="envelope-square" horiz-adv-x="896" d="M800 960h-704c-53.020 0-96-42.98-96-96v-704c0-53.020 42.98-96 96-96h704c53.020 0 96 42.98 96 96v704c0 53.020-42.98 96-96 96zM356.234 499.792c-181.376 131.634-179.528 131.966-228.234 169.874v50.334c0 26.51 21.49 48 48 48h544c26.51 0 48-21.49 48-48v-50.334c-48.742-37.938-46.868-38.248-228.234-169.876-21-15.31-62.784-52.24-91.766-51.788-29.006-0.436-70.734 36.454-91.766 51.79zM768 588.45v-284.45c0-26.51-21.49-48-48-48h-544c-26.51 0-48 21.49-48 48v284.45c27.916-21.588 66.658-50.472 190.606-140.428 28.324-20.682 75.95-64.29 129.388-64.020 53.774-0.268 102.074 44.082 129.44 64.050 123.916 89.93 162.65 118.812 190.566 140.398z" />
<glyph unicode="&#xe99d;" glyph-name="envelope" d="M1004.6 642.4c7.8 6.2 19.4 0.4 19.4-9.4v-409c0-53-43-96-96-96h-832c-53 0-96 43-96 96v408.8c0 10 11.4 15.6 19.4 9.4 44.8-34.8 104.2-79 308.2-227.2 42.2-30.8 113.4-95.6 184.4-95.2 71.4-0.6 144 65.6 184.6 95.2 204 148.2 263.2 192.6 308 227.4zM512 384c46.4-0.8 113.2 58.4 146.8 82.8 265.4 192.6 285.6 209.4 346.8 257.4 11.6 9 18.4 23 18.4 37.8v38c0 53-43 96-96 96h-832c-53 0-96-43-96-96v-38c0-14.8 6.8-28.6 18.4-37.8 61.2-47.8 81.4-64.8 346.8-257.4 33.6-24.4 100.4-83.6 146.8-82.8z" />
<glyph unicode="&#xe99e;" glyph-name="eraser4" d="M995.882 476.118c37.49 37.49 37.49 98.274 0 135.764l-320 320c-37.49 37.49-98.272 37.492-135.766 0l-512-512c-37.49-37.49-37.49-98.274 0-135.764l192-192c17.373-17.372 41.374-28.118 67.884-28.118h712c13.254 0 24 10.746 24 24v80c0 13.254-10.746 24-24 24h-288.234l284.116 284.118zM390.628 601.372l274.746-274.746-134.628-134.626h-229.49l-160 160 249.372 249.372z" />
<glyph unicode="&#xe99f;" glyph-name="euro-sign" horiz-adv-x="640" d="M621.412 196.47c-2.628 13.26-15.67 21.744-28.848 18.738-21.384-4.878-54.844-10.826-90.852-10.826-113.526 0-203.858 69.58-242.922 170.898h227.378c11.39 0 20.926 7.934 23.385 18.576l0.031 0.162 12.746 56.72c3.372 15.004-8.038 29.262-23.416 29.262h-268.474c-2.42 28.656-2.828 56.574 0.274 84.49h293.186c0 0 0.001 0 0.001 0 11.436 0 21.005 7.999 23.415 18.708l0.030 0.16 13.024 59.51c3.276 14.968-8.122 29.132-23.446 29.132h-276.556c41.266 89.982 125.38 150.060 235.238 150.060 28.972 0 57.128-4.5 75.702-8.29 12.432-2.536 24.694 4.996 28.004 17.246l23.982 88.736c3.644 13.482-4.93 27.232-18.652 29.834-24.208 4.59-63.222 10.414-105.372 10.414-194.368 0-351.21-120.504-409.12-288h-66.15c-13.254 0-24-10.746-24-24v-59.51c0-13.254 10.746-24 24-24h43.138c-2.018-27.214-2.362-58.574-0.362-84.49h-42.776c-13.254 0-24-10.746-24-24v-56.72c0-13.254 10.746-24 24-24h60.228c50.050-180.664 206.3-311.28 415.042-311.28 52.602 0 97.124 9.088 122.202 15.576 12.334 3.19 20.054 15.416 17.576 27.914l-17.636 88.98z" />
<glyph unicode="&#xe9a0;" glyph-name="exchange-alt" d="M0 688v32c0 26.51 21.49 48 48 48h720v96c0 42.734 51.798 64.084 81.942 33.942l160-160c18.744-18.746 18.744-49.138 0-67.882l-160-160c-30.030-30.024-81.942-8.972-81.942 33.94v96h-720c-26.51 0-48 21.49-48 48zM976 384h-720v96c0 42.628-51.724 64.16-81.942 33.942l-160-160c-18.744-18.746-18.744-49.138 0-67.882l160-160c30.056-30.054 81.942-8.934 81.942 33.94v96h720c26.51 0 48 21.49 48 48v32c0 26.51-21.49 48-48 48z" />
<glyph unicode="&#xe9a1;" glyph-name="exclamation-circle" d="M1008 512c0-273.994-222.086-496-496-496s-496 222.006-496 496c0 273.834 222.086 496 496 496s496-222.166 496-496zM512 412c-50.81 0-92-41.19-92-92s41.19-92 92-92 92 41.19 92 92-41.19 92-92 92zM424.654 742.692l14.836-272c0.694-12.728 11.218-22.692 23.964-22.692h97.092c12.746 0 23.27 9.964 23.964 22.692l14.836 272c0.75 13.748-10.196 25.308-23.964 25.308h-126.766c-13.768 0-24.712-11.56-23.962-25.308z" />
<glyph unicode="&#xe9a2;" glyph-name="exclamation-triangle" horiz-adv-x="1152" d="M1139.034 143.974c36.916-63.988-9.422-143.974-83.154-143.974h-959.772c-73.874 0-119.998 80.11-83.154 143.974l479.892 832.056c36.934 64.018 129.44 63.902 166.308 0l479.88-832.056zM576 316c-50.81 0-92-41.19-92-92s41.19-92 92-92 92 41.19 92 92-41.19 92-92 92zM488.654 646.692l14.836-272c0.694-12.728 11.218-22.692 23.964-22.692h97.092c12.746 0 23.27 9.964 23.964 22.692l14.836 272c0.75 13.748-10.196 25.308-23.964 25.308h-126.766c-13.768 0-24.712-11.56-23.962-25.308z" />
<glyph unicode="&#xe9a3;" glyph-name="exclamation" horiz-adv-x="384" d="M352 160c0-88.224-71.776-160-160-160s-160 71.776-160 160 71.776 160 160 160 160-71.776 160-160zM50.52 973.602l27.2-544c1.278-25.546 22.362-45.602 47.94-45.602h132.68c25.578 0 46.662 20.056 47.94 45.602l27.2 544c1.37 27.418-20.488 50.398-47.94 50.398h-187.080c-27.452 0-49.31-22.98-47.94-50.398z" />
</font>
</defs>
</svg>
